<?xml version="1.0" standalone="no"?>
<!DOCTYPE svg PUBLIC "-//W3C//DTD SVG 1.1//EN" "http://www.w3.org/Graphics/SVG/1.1/DTD/svg11.dtd" >
<svg>
<metadata>
Created by FontForge 20090622 at Tue Dec  1 21:18:32 2015
 By deploy user
Copyright  2010 by Ryoichi Tsunekawa. All rights reserved.
</metadata>
<defs>
<font id="BebasNeueBook" horiz-adv-x="376" >
  <font-face 
    font-family="Bebas Neue Book"
    font-weight="400"
    font-stretch="normal"
    units-per-em="1000"
    panose-1="0 0 5 0 0 0 0 0 0 0"
    ascent="750"
    descent="-250"
    x-height="700"
    cap-height="700"
    bbox="-45 -179 814 880"
    underline-thickness="50"
    underline-position="-60"
    unicode-range="U+0020-U+F6C3"
  />
<missing-glyph horiz-adv-x="548" 
d="M50 0v700h448v-700h-448zM132 630l119 -270l-127 -291h34l114 262l115 -262h38l-127 291l118 270h-33l-107 -242l-107 242h-37z" />
    <glyph glyph-name=".notdef" horiz-adv-x="548" 
d="M50 0v700h448v-700h-448zM132 630l119 -270l-127 -291h34l114 262l115 -262h38l-127 291l118 270h-33l-107 -242l-107 242h-37z" />
    <glyph glyph-name=".null" horiz-adv-x="0" 
 />
    <glyph glyph-name="nonmarkingreturn" horiz-adv-x="333" 
 />
    <glyph glyph-name="space" unicode=" " horiz-adv-x="155" 
 />
    <glyph glyph-name="exclam" unicode="!" horiz-adv-x="126" 
d="M46 155l-6 180v366h46v-366l-6 -180h-34zM41 87h44v-87h-44v87z" />
    <glyph glyph-name="quotedbl" unicode="&#x22;" horiz-adv-x="206" 
d="M40 701h45l-6 -174h-34zM121 701h45l-6 -174h-33z" />
    <glyph glyph-name="numbersign" unicode="#" horiz-adv-x="414" 
d="M380 483h-61l-24 -227h61l-3 -34h-61l-24 -222h-39l24 222h-118l-23 -222h-39l24 222h-66l3 34h66l24 227h-67l3 34h67l19 184h39l-19 -184h117l19 184h39l-19 -184h61zM256 256l24 227h-118l-23 -227h117z" />
    <glyph glyph-name="dollar" unicode="$" horiz-adv-x="377" 
d="M209 761v-60q67 -6 98.5 -52.5t31.5 -120.5v-16h-44v18q0 130 -104 130t-104 -129q0 -47 26 -83.5t63.5 -62l74.5 -52t63 -67.5t26 -94q0 -74 -32 -120.5t-99 -52.5v-56h-39v56q-67 5 -99.5 51.5t-32.5 121.5v39h44v-41q0 -130 106 -130t106 130q0 39 -18.5 71t-47 53
l-61 45l-61 47t-47 60t-18.5 82q0 160 129 173v60h39z" />
    <glyph glyph-name="percent" unicode="%" horiz-adv-x="605" 
d="M132 702q48 0 71.5 -31t23.5 -82v-213q0 -51 -23.5 -82t-71.5 -31t-71 31t-23 82v213q0 51 23 82t71 31zM424 701h30l-276 -701h-30zM132 673q-63 0 -63 -83v-216q0 -82 63 -82t63 82v216q0 83 -63 83zM473 436q48 0 71 -31.5t23 -82.5v-210q0 -51 -23 -82.5t-71 -31.5
t-71.5 31.5t-23.5 82.5v210q0 51 23.5 82.5t71.5 31.5zM473 406q-63 0 -63 -82v-214q0 -83 63 -83t63 83v214q0 82 -63 82z" />
    <glyph glyph-name="ampersand" unicode="&#x26;" horiz-adv-x="403" 
d="M307 658h-99q-122 0 -122 -130v-28q0 -48 25.5 -80t70.5 -34h108v78h46v-78h38v-42h-38v-252q0 -63 18 -92h-48q-15 27 -15 67q-31 -73 -118 -73q-67 0 -100 43.5t-33 118.5v66q0 52 23 91t69 54q-46 13 -69 51t-23 91v17q0 174 168 174h99v-42zM290 344h-102
q-49 -3 -75.5 -35.5t-26.5 -85.5v-64q0 -57 25.5 -90t77.5 -33q44 0 72 26t29 72v210z" />
    <glyph glyph-name="quotesingle" unicode="'" horiz-adv-x="122" 
d="M39 701h44l-5 -174h-34z" />
    <glyph glyph-name="parenleft" unicode="(" horiz-adv-x="231" 
d="M200 662h-20q-52 0 -71.5 -29t-19.5 -87v-391q0 -59 19.5 -87.5t71.5 -28.5h20v-39h-22q-75 0 -105 38.5t-30 116.5v391q0 78 30 116.5t105 38.5h22v-39z" />
    <glyph glyph-name="parenright" unicode=")" horiz-adv-x="231" 
d="M31 701h22q75 0 105.5 -38.5t30.5 -116.5v-391q0 -78 -30.5 -116.5t-105.5 -38.5h-22v39h20q52 0 72 29t20 87v391q0 58 -20 87t-72 29h-20v39z" />
    <glyph glyph-name="asterisk" unicode="*" horiz-adv-x="394" 
d="M361 556l-148 -33l95 -118l-31 -23l-80 129l-80 -128l-32 22l96 118l-148 35l12 37l142 -53l-10 153h39l-9 -153l142 51z" />
    <glyph glyph-name="plus" unicode="+" horiz-adv-x="388" 
d="M354 333h-143v-146h-34v146h-142v34h142v144h34v-144h143v-34z" />
    <glyph glyph-name="comma" unicode="," horiz-adv-x="134" 
d="M45 -76l20 76h-15v88h44v-84l-29 -80h-20z" />
    <glyph glyph-name="hyphen" unicode="-" horiz-adv-x="260" 
d="M38 329v42h184v-42h-184z" />
    <glyph glyph-name="period" unicode="." horiz-adv-x="125" 
d="M40 88h45v-88h-45v88z" />
    <glyph glyph-name="slash" unicode="/" horiz-adv-x="371" 
d="M303 700h41l-276 -700h-41z" />
    <glyph glyph-name="zero" unicode="0" horiz-adv-x="381" 
d="M37 171v358q0 81 38.5 129t115.5 48t115.5 -48t38.5 -129v-358q0 -81 -38.5 -129t-115.5 -48t-115.5 48t-38.5 129zM83 532v-363q0 -61 26.5 -97t81.5 -36t81.5 36t26.5 97v363q0 61 -26.5 96.5t-81.5 35.5t-81.5 -35.5t-26.5 -96.5z" />
    <glyph glyph-name="one" unicode="1" horiz-adv-x="281" 
d="M173 0v622q-40 -53 -109 -59v40q87 6 119 98h36v-701h-46z" />
    <glyph glyph-name="two" unicode="2" horiz-adv-x="377" 
d="M191 706q78 0 114.5 -48t36.5 -130q0 -56 -26 -106.5t-63.5 -90.5l-75 -80.5t-64 -92t-27.5 -108.5v-8h250v-42h-296v34q0 68 26.5 126.5t64 99.5l75 80t64 86t26.5 100q0 138 -107 138q-55 0 -80 -37t-25 -98v-48h-44v45q0 81 37 130.5t114 49.5z" />
    <glyph glyph-name="three" unicode="3" horiz-adv-x="378" 
d="M189 706q77 0 114 -48t37 -129v-17q0 -52 -24.5 -90.5t-68.5 -54.5q93 -28 93 -142v-54q0 -81 -37 -129t-114 -48t-114 48t-37 129v40h44v-42q0 -133 106 -133t106 136v54q0 113 -104 118h-47v42h49q47 3 74.5 35t27.5 82v25q0 136 -106 136t-106 -132v-28h-44v25
q0 81 37 129t114 48z" />
    <glyph glyph-name="four" unicode="4" horiz-adv-x="403" 
d="M374 155h-59v-155h-45v155h-239v43l232 503h52v-504h59v-42zM270 615l-197 -418h197v418z" />
    <glyph glyph-name="five" unicode="5" horiz-adv-x="378" 
d="M105 658l-13 -250q34 54 113 54q69 0 102.5 -46.5t33.5 -124.5v-120q0 -80 -37.5 -128.5t-114.5 -48.5q-76 0 -113.5 48.5t-37.5 128.5v38h44v-40q0 -60 26 -96t80 -36q55 0 81 36t26 96v118q0 60 -26 96t-81 36q-78 0 -100 -80v-12h-43l18 374h263v-43h-221z" />
    <glyph glyph-name="six" unicode="6" horiz-adv-x="382" 
d="M192 706q77 0 114 -46.5t37 -127.5v-8h-44v11q0 129 -106 129q-110 0 -110 -138v-162q38 64 125 64q70 0 104 -46.5t34 -124.5v-86q0 -81 -38.5 -129t-115.5 -48q-78 0 -116.5 48t-38.5 129v356q0 83 38 131t117 48zM192 385q-56 0 -82.5 -35.5t-26.5 -95.5v-85
q0 -132 109 -132q55 0 81.5 35.5t26.5 96.5v85q0 60 -26.5 95.5t-81.5 35.5z" />
    <glyph glyph-name="seven" unicode="7" horiz-adv-x="378" 
d="M97 0l197 658h-257v43h304v-42l-197 -659h-47z" />
    <glyph glyph-name="eight" unicode="8" horiz-adv-x="388" 
d="M194 706q77 0 118 -45t41 -125v-22q0 -122 -93 -147q93 -27 93 -150v-50q0 -80 -40.5 -126.5t-118.5 -46.5q-79 0 -119 46.5t-40 126.5v50q0 122 94 150q-94 26 -94 147v22q0 80 40.5 125t118.5 45zM194 664q-56 0 -84.5 -33.5t-28.5 -95.5v-29q0 -120 113 -120t113 120
v29q0 62 -29 95.5t-84 33.5zM194 344q-113 0 -113 -123v-53q0 -62 28.5 -97t84.5 -35t84 35t29 97v53q0 123 -113 123z" />
    <glyph glyph-name="nine" unicode="9" horiz-adv-x="382" 
d="M190 707q78 0 116 -48.5t38 -129.5v-356q0 -82 -38 -130.5t-116 -48.5q-77 0 -115 47.5t-38 127.5v9h44v-11q0 -60 26.5 -95.5t81.5 -35.5q109 0 109 139v172q-31 -74 -124 -74q-70 0 -104 46t-34 125v85q0 81 38.5 129.5t115.5 48.5zM190 664q-55 0 -81.5 -35.5
t-26.5 -96.5v-85q0 -61 26.5 -96.5t81.5 -35.5t81.5 35.5t26.5 96.5v85q0 61 -26.5 96.5t-81.5 35.5z" />
    <glyph glyph-name="colon" unicode=":" horiz-adv-x="125" 
d="M40 469h45v-88h-45v88zM40 88h45v-88h-45v88z" />
    <glyph glyph-name="semicolon" unicode=";" horiz-adv-x="134" 
d="M50 469h44v-88h-44v88zM45 -76l20 76h-15v88h44v-84l-29 -80h-20z" />
    <glyph glyph-name="less" unicode="&#x3c;" horiz-adv-x="370" 
d="M330 235v-36l-294 134v34l294 134v-36l-249 -115z" />
    <glyph glyph-name="equal" unicode="=" horiz-adv-x="305" 
d="M38 442h229v-34h-229v34zM38 320h229v-34h-229v34z" />
    <glyph glyph-name="greater" unicode="&#x3e;" horiz-adv-x="370" 
d="M40 199v36l250 115l-250 115v36l294 -134v-34z" />
    <glyph glyph-name="question" unicode="?" horiz-adv-x="363" 
d="M182 706q77 0 113 -48t36 -130q0 -52 -23 -98.5t-50 -75t-50 -71.5t-23 -90q0 -17 5 -37h-42q-5 20 -5 39q0 42 14.5 78t35.5 63l42 54t35.5 63t14.5 77q0 134 -104 134t-104 -135v-49h-44v46q0 82 36 131t113 49zM146 87h44v-87h-44v87z" />
    <glyph glyph-name="at" unicode="@" horiz-adv-x="688" 
d="M390 730q137 0 201.5 -75t64.5 -208q0 -121 -46.5 -212t-124.5 -92q-33 0 -50 19t-19 51q-32 -77 -108 -76q-57 1 -79.5 44t-15.5 109l10 99q7 66 38.5 105.5t87.5 38.5q73 -2 91 -71l7 66h41l-30 -286q-3 -24 6 -42t32 -18q35 0 60.5 27.5t39 70t19 84.5t5.5 82
q0 118 -57.5 182.5t-174.5 64.5q-80 0 -141.5 -32.5t-98.5 -90t-55.5 -130t-18.5 -156.5q0 -294 273 -294q111 0 187 58l-3 -42q-77 -53 -186 -53q-157 0 -234 87t-77 246q0 71 13 135t41 120.5t68.5 98.5t100.5 66t133 24zM360 492q-43 0 -67 -29.5t-30 -78.5l-9 -94
q-5 -49 11.5 -81t60.5 -32q44 -1 67.5 31t28.5 82l11 97q5 46 -13 75.5t-60 29.5z" />
    <glyph glyph-name="A" unicode="A" horiz-adv-x="436" 
d="M325 155h-218l-35 -155h-42l153 701h67l156 -701h-46zM215 648l-101 -453h204z" />
    <glyph glyph-name="B" unicode="B" horiz-adv-x="378" 
d="M40 700h147q77 0 110 -37t33 -112v-40q0 -60 -20.5 -93.5t-71.5 -44.5q105 -21 105 -150v-61q0 -162 -153 -162h-150v700zM86 391h78q64 0 92 23.5t28 87.5v45q0 57 -22 84t-76 27h-100v-267zM86 42h104q107 0 107 121v63q0 67 -30 95t-94 28h-87v-307z" />
    <glyph glyph-name="C" unicode="C" horiz-adv-x="374" 
d="M188 706q77 0 114 -48.5t37 -128.5v-58h-44v61q0 60 -25.5 96t-80.5 36t-80.5 -36t-25.5 -96v-364q0 -131 106 -131t106 131v83h44v-80q0 -80 -37 -128.5t-114 -48.5t-114 48.5t-37 128.5v358q0 80 37 128.5t114 48.5z" />
    <glyph glyph-name="D" unicode="D" horiz-adv-x="385" 
d="M40 700h154q78 0 116.5 -46.5t38.5 -127.5v-352q0 -81 -38.5 -127.5t-116.5 -46.5h-154v700zM86 42h107q110 0 110 130v356q0 60 -27 95t-83 35h-107v-616z" />
    <glyph glyph-name="E" unicode="E" horiz-adv-x="351" 
d="M86 376h191v-42h-191v-292h230v-42h-276v700h276v-42h-230v-282z" />
    <glyph glyph-name="F" unicode="F" horiz-adv-x="336" 
d="M86 359h181v-42h-181v-317h-46v700h266v-42h-220v-299z" />
    <glyph glyph-name="G" unicode="G" 
d="M188 706q77 0 114 -48.5t37 -128.5v-52h-44v55q0 60 -25.5 96t-80.5 36t-80.5 -36t-25.5 -96v-364q0 -131 106 -131t106 131v151h-93v42h137v-190q0 -80 -37 -128.5t-114 -48.5t-114 48.5t-37 128.5v358q0 80 37 128.5t114 48.5z" />
    <glyph glyph-name="H" unicode="H" horiz-adv-x="391" 
d="M304 329h-218v-329h-46v700h46v-329h218v329h47v-700h-47v329z" />
    <glyph glyph-name="I" unicode="I" horiz-adv-x="126" 
d="M40 700h46v-700h-46v700z" />
    <glyph glyph-name="J" unicode="J" horiz-adv-x="253" 
d="M29 0v42q15 -1 41 1q51 4 75 33.5t24 92.5v531h46v-528q0 -88 -36 -128.5t-104 -43.5q-22 -1 -46 0z" />
    <glyph glyph-name="K" unicode="K" horiz-adv-x="404" 
d="M327 0l-193 329l-48 -76v-253h-46v700h46v-370l228 370h48l-200 -326l213 -374h-48z" />
    <glyph glyph-name="L" unicode="L" horiz-adv-x="335" 
d="M306 0h-266v700h46v-658h220v-42z" />
    <glyph glyph-name="M" unicode="M" horiz-adv-x="505" 
d="M421 622l-146 -621h-46l-148 619v-620h-41v700h66l147 -619l146 619h66v-700h-44v622z" />
    <glyph glyph-name="N" unicode="N" horiz-adv-x="391" 
d="M82 624v-624h-42v700h60l210 -591v591h42v-700h-51z" />
    <glyph glyph-name="O" unicode="O" horiz-adv-x="381" 
d="M37 171v358q0 80 38.5 128.5t114.5 48.5q78 0 116.5 -48t38.5 -129v-358q0 -81 -38.5 -129t-116.5 -48q-76 0 -114.5 48.5t-38.5 128.5zM83 532v-364q0 -61 26 -96.5t81 -35.5q56 0 82.5 35.5t26.5 96.5v364q0 61 -26.5 96.5t-82.5 35.5q-55 0 -81 -35.5t-26 -96.5z" />
    <glyph glyph-name="P" unicode="P" horiz-adv-x="366" 
d="M40 700h145q150 0 150 -170v-76q0 -166 -162 -166h-87v-288h-46v700zM86 330h87q61 0 88.5 28.5t27.5 92.5v82q0 125 -104 125h-99v-328z" />
    <glyph glyph-name="Q" unicode="Q" horiz-adv-x="408" 
d="M191 706q77 0 115.5 -48t38.5 -129v-358q0 -77 -33 -121q16 -28 55 -28h11v-41h-12q-58 0 -83 41q-38 -28 -92 -28q-77 0 -115.5 48t-38.5 129v358q0 81 38.5 129t115.5 48zM191 664q-55 0 -81.5 -35.5t-26.5 -96.5v-364q0 -61 26.5 -96.5t81.5 -35.5t81.5 35.5
t26.5 96.5v364q0 61 -26.5 96.5t-81.5 35.5z" />
    <glyph glyph-name="R" unicode="R" horiz-adv-x="386" 
d="M40 700h146q150 0 150 -158v-61q0 -122 -101 -145q101 -22 101 -143v-109q0 -58 17 -84h-48q-15 26 -15 84v110q0 66 -33 92.5t-98 26.5h-73v-313h-46v700zM86 355h74q66 0 98 25t32 92v66q0 120 -105 120h-99v-303z" />
    <glyph glyph-name="S" unicode="S" horiz-adv-x="370" 
d="M186 706q76 0 112.5 -47.5t36.5 -127.5v-15h-44v18q0 130 -104 130t-104 -129q0 -34 14 -63t36.5 -50.5t49 -41l53.5 -40t49.5 -43.5t36.5 -56t14 -72q0 -80 -37 -127.5t-114 -47.5t-114 47.5t-37 127.5v36h44v-39q0 -129 106 -129t106 129q0 34 -14 62.5t-36.5 49.5
t-49 41l-53.5 40.5t-49.5 43.5t-36.5 56t-14 73q0 81 37 127t112 47z" />
    <glyph glyph-name="T" unicode="T" horiz-adv-x="369" 
d="M207 0h-46v658h-143v42h331v-42h-142v-658z" />
    <glyph glyph-name="U" unicode="U" 
d="M84 700v-531q0 -133 105 -133t105 133v531h43v-529q0 -80 -36.5 -128.5t-112.5 -48.5t-113 48.5t-37 128.5v529h46z" />
    <glyph glyph-name="V" unicode="V" horiz-adv-x="434" 
d="M30 700h47l142 -647l142 647h43l-152 -700h-68z" />
    <glyph glyph-name="W" unicode="W" horiz-adv-x="603" 
d="M306 573l-98 -573h-64l-113 700h45l105 -638l102 635h49l98 -633l101 636h41l-112 -700h-60z" />
    <glyph glyph-name="X" unicode="X" horiz-adv-x="440" 
d="M360 0l-142 326l-142 -326h-45l158 363l-147 337h48l132 -301l133 301h44l-147 -337l157 -363h-49z" />
    <glyph glyph-name="Y" unicode="Y" horiz-adv-x="415" 
d="M184 0v269l-157 431h48l134 -368l134 368h45l-158 -431v-269h-46z" />
    <glyph glyph-name="Z" unicode="Z" horiz-adv-x="388" 
d="M349 42v-42h-315v42l271 616h-258v42h306v-43l-271 -615h267z" />
    <glyph glyph-name="bracketleft" unicode="[" horiz-adv-x="232" 
d="M89 39h110v-39h-156v701h156v-39h-110v-623z" />
    <glyph glyph-name="backslash" unicode="\" horiz-adv-x="371" 
d="M27 700h41l276 -700h-41z" />
    <glyph glyph-name="bracketright" unicode="]" horiz-adv-x="232" 
d="M34 39h110v623h-110v39h156v-701h-156v39z" />
    <glyph glyph-name="asciicircum" unicode="^" horiz-adv-x="409" 
d="M204 657l-132 -266h-39l154 309h35l154 -309h-39z" />
    <glyph glyph-name="underscore" unicode="_" horiz-adv-x="513" 
d="M26 -10h455v-35h-455v35z" />
    <glyph glyph-name="grave" unicode="`" horiz-adv-x="197" 
d="M41 848h50l71 -95h-36z" />
    <glyph glyph-name="a" unicode="a" horiz-adv-x="436" 
d="M325 155h-218l-35 -155h-42l153 701h67l156 -701h-46zM215 648l-101 -453h204z" />
    <glyph glyph-name="b" unicode="b" horiz-adv-x="378" 
d="M40 700h147q77 0 110 -37t33 -112v-40q0 -60 -20.5 -93.5t-71.5 -44.5q105 -21 105 -150v-61q0 -162 -153 -162h-150v700zM86 391h78q64 0 92 23.5t28 87.5v45q0 57 -22 84t-76 27h-100v-267zM86 42h104q107 0 107 121v63q0 67 -30 95t-94 28h-87v-307z" />
    <glyph glyph-name="c" unicode="c" horiz-adv-x="374" 
d="M188 706q77 0 114 -48.5t37 -128.5v-58h-44v61q0 60 -25.5 96t-80.5 36t-80.5 -36t-25.5 -96v-364q0 -131 106 -131t106 131v83h44v-80q0 -80 -37 -128.5t-114 -48.5t-114 48.5t-37 128.5v358q0 80 37 128.5t114 48.5z" />
    <glyph glyph-name="d" unicode="d" horiz-adv-x="385" 
d="M40 700h154q78 0 116.5 -46.5t38.5 -127.5v-352q0 -81 -38.5 -127.5t-116.5 -46.5h-154v700zM86 42h107q110 0 110 130v356q0 60 -27 95t-83 35h-107v-616z" />
    <glyph glyph-name="e" unicode="e" horiz-adv-x="351" 
d="M86 376h191v-42h-191v-292h230v-42h-276v700h276v-42h-230v-282z" />
    <glyph glyph-name="f" unicode="f" horiz-adv-x="336" 
d="M86 359h181v-42h-181v-317h-46v700h266v-42h-220v-299z" />
    <glyph glyph-name="g" unicode="g" 
d="M188 706q77 0 114 -48.5t37 -128.5v-52h-44v55q0 60 -25.5 96t-80.5 36t-80.5 -36t-25.5 -96v-364q0 -131 106 -131t106 131v151h-93v42h137v-190q0 -80 -37 -128.5t-114 -48.5t-114 48.5t-37 128.5v358q0 80 37 128.5t114 48.5z" />
    <glyph glyph-name="h" unicode="h" horiz-adv-x="391" 
d="M304 329h-218v-329h-46v700h46v-329h218v329h47v-700h-47v329z" />
    <glyph glyph-name="i" unicode="i" horiz-adv-x="126" 
d="M40 700h46v-700h-46v700z" />
    <glyph glyph-name="j" unicode="j" horiz-adv-x="253" 
d="M29 0v42q15 -1 41 1q51 4 75 33.5t24 92.5v531h46v-528q0 -88 -36 -128.5t-104 -43.5q-22 -1 -46 0z" />
    <glyph glyph-name="k" unicode="k" horiz-adv-x="404" 
d="M327 0l-193 329l-48 -76v-253h-46v700h46v-370l228 370h48l-200 -326l213 -374h-48z" />
    <glyph glyph-name="l" unicode="l" horiz-adv-x="335" 
d="M306 0h-266v700h46v-658h220v-42z" />
    <glyph glyph-name="m" unicode="m" horiz-adv-x="505" 
d="M421 622l-146 -621h-46l-148 619v-620h-41v700h66l147 -619l146 619h66v-700h-44v622z" />
    <glyph glyph-name="n" unicode="n" horiz-adv-x="391" 
d="M82 624v-624h-42v700h60l210 -591v591h42v-700h-51z" />
    <glyph glyph-name="o" unicode="o" horiz-adv-x="381" 
d="M37 171v358q0 80 38.5 128.5t114.5 48.5q78 0 116.5 -48t38.5 -129v-358q0 -81 -38.5 -129t-116.5 -48q-76 0 -114.5 48.5t-38.5 128.5zM83 532v-364q0 -61 26 -96.5t81 -35.5q56 0 82.5 35.5t26.5 96.5v364q0 61 -26.5 96.5t-82.5 35.5q-55 0 -81 -35.5t-26 -96.5z" />
    <glyph glyph-name="p" unicode="p" horiz-adv-x="364" 
d="M40 700h145q150 0 150 -170v-76q0 -166 -162 -166h-87v-288h-46v700zM86 330h87q61 0 88.5 28.5t27.5 92.5v82q0 125 -104 125h-99v-328z" />
    <glyph glyph-name="q" unicode="q" horiz-adv-x="389" 
d="M191 706q77 0 115.5 -48t38.5 -129v-358q0 -77 -33 -121q16 -28 55 -28h11v-41h-12q-58 0 -83 41q-38 -28 -92 -28q-77 0 -115.5 48t-38.5 129v358q0 81 38.5 129t115.5 48zM191 664q-55 0 -81.5 -35.5t-26.5 -96.5v-364q0 -61 26.5 -96.5t81.5 -35.5t81.5 35.5
t26.5 96.5v364q0 61 -26.5 96.5t-81.5 35.5z" />
    <glyph glyph-name="r" unicode="r" horiz-adv-x="386" 
d="M40 700h146q150 0 150 -158v-61q0 -122 -101 -145q101 -22 101 -143v-109q0 -58 17 -84h-48q-15 26 -15 84v110q0 66 -33 92.5t-98 26.5h-73v-313h-46v700zM86 355h74q66 0 98 25t32 92v66q0 120 -105 120h-99v-303z" />
    <glyph glyph-name="s" unicode="s" horiz-adv-x="370" 
d="M186 706q76 0 112.5 -47.5t36.5 -127.5v-15h-44v18q0 130 -104 130t-104 -129q0 -34 14 -63t36.5 -50.5t49 -41l53.5 -40t49.5 -43.5t36.5 -56t14 -72q0 -80 -37 -127.5t-114 -47.5t-114 47.5t-37 127.5v36h44v-39q0 -129 106 -129t106 129q0 34 -14 62.5t-36.5 49.5
t-49 41l-53.5 40.5t-49.5 43.5t-36.5 56t-14 73q0 81 37 127t112 47z" />
    <glyph glyph-name="t" unicode="t" horiz-adv-x="364" 
d="M204 0h-46v658h-142v42h331v-42h-143v-658z" />
    <glyph glyph-name="u" unicode="u" 
d="M84 700v-531q0 -133 105 -133t105 133v531h43v-529q0 -80 -36.5 -128.5t-112.5 -48.5t-113 48.5t-37 128.5v529h46z" />
    <glyph glyph-name="v" unicode="v" horiz-adv-x="434" 
d="M30 700h47l142 -647l142 647h43l-152 -700h-68z" />
    <glyph glyph-name="w" unicode="w" horiz-adv-x="603" 
d="M306 573l-98 -573h-64l-113 700h45l105 -638l102 635h49l98 -633l101 636h41l-112 -700h-60z" />
    <glyph glyph-name="x" unicode="x" horiz-adv-x="440" 
d="M360 0l-142 326l-142 -326h-45l158 363l-147 337h48l132 -301l133 301h44l-147 -337l157 -363h-49z" />
    <glyph glyph-name="y" unicode="y" horiz-adv-x="415" 
d="M184 0v269l-157 431h48l134 -368l134 368h45l-158 -431v-269h-46z" />
    <glyph glyph-name="z" unicode="z" horiz-adv-x="388" 
d="M349 42v-42h-315v42l271 616h-258v42h306v-43l-271 -615h267z" />
    <glyph glyph-name="braceleft" unicode="{" horiz-adv-x="256" 
d="M225 662h-22q-34 0 -46 -20t-15 -63l-6 -126q-2 -42 -14.5 -67t-50.5 -36q38 -10 50.5 -35t14.5 -68l6 -125q3 -43 15 -63t46 -20h22v-39h-37q-81 0 -88 104l-7 137q-2 44 -13.5 63t-49.5 25v42q39 6 50 25t13 63l7 138q7 104 88 104h37v-39z" />
    <glyph glyph-name="bar" unicode="|" horiz-adv-x="250" 
d="M108 724h38v-747h-38v747z" />
    <glyph glyph-name="braceright" unicode="}" horiz-adv-x="256" 
d="M31 701h37q81 0 88 -104l7 -138q3 -45 14 -63.5t50 -24.5v-42q-39 -6 -50 -24.5t-14 -63.5l-7 -137q-3 -50 -23 -77t-65 -27h-37v39h23q33 0 45 20t15 63l7 125q1 28 5 45.5t18.5 34t41.5 23.5q-38 11 -50.5 36t-14.5 67l-7 126q-3 42 -15 62.5t-45 20.5h-23v39z" />
    <glyph glyph-name="asciitilde" unicode="~" horiz-adv-x="397" 
d="M124 398q31 1 82 -30.5t74 -30.5q19 1 32.5 13.5t31.5 40.5l24 -23q-41 -65 -87 -68q-30 -1 -81 30.5t-77 31.5q-38 0 -71 -54l-24 21q43 69 96 69z" />
    <glyph glyph-name="uni00A0" unicode="&#xa0;" horiz-adv-x="155" 
 />
    <glyph glyph-name="exclamdown" unicode="&#xa1;" horiz-adv-x="126" 
d="M41 701h44v-88h-44v88zM40 0v326l6 220h34l6 -220v-326h-46z" />
    <glyph glyph-name="cent" unicode="&#xa2;" horiz-adv-x="377" 
d="M208 705v-47q132 -10 132 -170v-32h-44v34q0 127 -106 127q-105 0 -105 -131v-270q0 -60 25.5 -96t79.5 -36q106 0 106 130v55h44v-52q0 -76 -32.5 -122.5t-99.5 -51.5v-48h-39v48q-66 6 -98 53.5t-32 121.5v265q0 74 32 121.5t98 53.5v47h39z" />
    <glyph glyph-name="sterling" unicode="&#xa3;" horiz-adv-x="386" 
d="M198 706q76 0 111.5 -49.5t35.5 -130.5v-43h-43v45q0 136 -103 136q-105 0 -105 -134q0 -53 14 -95t35 -84.5t30 -73.5h147v-37h-143q6 -46 -12.5 -92.5t-70.5 -105.5h253v-42h-311v41q48 37 77.5 88.5t21.5 110.5h-86v37h79q-9 30 -31 72t-35.5 83.5t-13.5 95.5
q0 81 36 129.5t114 48.5z" />
    <glyph glyph-name="currency" unicode="&#xa4;" horiz-adv-x="349" 
d="M312 467l-48 -47q25 -30 25 -70t-25 -70l48 -47l-20 -20l-47 46q-29 -23 -71 -23q-39 0 -70 23l-47 -46l-20 20l47 46q-24 32 -24 71q0 40 24 70l-47 47l20 20l48 -47q30 24 69 24t71 -24l47 47zM174 434q-35 0 -59.5 -24.5t-24.5 -59.5t24.5 -59.5t59.5 -24.5t60 24.5
t25 59.5t-25 59.5t-60 24.5z" />
    <glyph glyph-name="yen" unicode="&#xa5;" horiz-adv-x="431" 
d="M347 248h-109v-73h109v-26h-109v-149h-46v149h-108v26h108v73h-108v26h104l-160 426h49l140 -374l141 374h44l-161 -426h106v-26z" />
    <glyph glyph-name="brokenbar" unicode="&#xa6;" horiz-adv-x="251" 
d="M108 409v314h39v-314h-39zM108 -23v314h39v-314h-39z" />
    <glyph glyph-name="section" unicode="&#xa7;" horiz-adv-x="378" 
d="M191 706q65 -1 105.5 -35.5t40.5 -92.5v-19h-44v13q0 43 -29 68.5t-72 26.5q-45 0 -75.5 -22t-31.5 -65q-1 -33 25 -56.5t63.5 -40t75 -35t64 -52t26.5 -80.5q0 -89 -97 -133q47 -23 73 -52t25 -77q-1 -55 -44.5 -88t-105.5 -33q-67 0 -109 34t-42 94v33h43v-28
q0 -44 31 -69t76 -25q41 0 72.5 22t32.5 62q1 34 -25 58t-63.5 40t-75.5 34t-64 51t-26 81q0 46 30 80t76 50q-52 26 -80 55t-27 77q1 58 44 91t108 33zM189 430q-43 -7 -74 -36.5t-31 -71.5q0 -24 9.5 -43t31 -34t35 -22t42.5 -20q40 12 66.5 41t26.5 70q0 42 -27.5 67
t-78.5 49z" />
    <glyph glyph-name="dieresis" unicode="&#xa8;" horiz-adv-x="190" 
d="M68 745v85h54v-85h-54z" />
    <glyph glyph-name="copyright" unicode="&#xa9;" horiz-adv-x="748" 
d="M374 700q147 0 244 -100t97 -250t-97 -250t-244 -100q-148 0 -244.5 99.5t-96.5 250.5t96.5 250.5t244.5 99.5zM374 669q-134 0 -221.5 -91t-87.5 -228t87.5 -228t221.5 -91t221 91t87 228t-87 228t-221 91zM370 569q52 0 78 -33.5t26 -89.5v-24h-32v26q0 90 -72 90
t-72 -90v-196q0 -90 72 -90t72 90v37h32v-36q0 -56 -26 -89.5t-78 -33.5q-54 0 -80 33.5t-26 89.5v193q0 56 26 89.5t80 33.5z" />
    <glyph glyph-name="ordfeminine" unicode="&#xaa;" horiz-adv-x="273" 
d="M146 705q88 0 88 -109v-260h-27l-2 62q-22 -67 -85 -67q-41 0 -62.5 25t-21.5 71v3q0 114 167 116v54q0 76 -58 76q-64 0 -64 -79v-12h-30v11q0 109 95 109zM203 443v78q-135 -2 -135 -87v-5q0 -69 62 -69q32 0 50.5 23.5t22.5 59.5zM38 268h196v-31h-196v31z" />
    <glyph glyph-name="guillemotleft" unicode="&#xab;" horiz-adv-x="285" 
d="M97 101l-66 250l66 245h42l-65 -245l65 -250h-42zM212 101l-65 250l65 245h42l-65 -245l65 -250h-42z" />
    <glyph glyph-name="logicalnot" unicode="&#xac;" horiz-adv-x="380" 
d="M311 333h-276v34h310v-168h-34v134z" />
    <glyph glyph-name="uni00AD" unicode="&#xad;" horiz-adv-x="260" 
d="M38 329v42h184v-42h-184z" />
    <glyph glyph-name="registered" unicode="&#xae;" horiz-adv-x="748" 
d="M374 700q147 0 244 -100t97 -250t-97 -250t-244 -100q-148 0 -244.5 99.5t-96.5 250.5t96.5 250.5t244.5 99.5zM374 669q-134 0 -221.5 -91t-87.5 -228t87.5 -228t221.5 -91t221 91t87 228t-87 228t-221 91zM275 564h103q105 0 105 -111v-13q0 -82 -64 -101
q64 -19 64 -99v-46q0 -42 12 -58h-35q-11 20 -11 59v46q0 46 -23.5 63.5t-68.5 17.5h-48v-186h-34v428zM309 354h57q43 0 63 18t20 62v15q0 83 -73 83h-67v-178z" />
    <glyph glyph-name="macron" unicode="&#xaf;" horiz-adv-x="253" 
d="M29 781h194v-34h-194v34z" />
    <glyph glyph-name="degree" unicode="&#xb0;" horiz-adv-x="210" 
d="M105 708q31 0 52.5 -21t21.5 -52t-21.5 -52t-52.5 -21t-52.5 21t-21.5 52t21.5 52t52.5 21zM105 684q-21 0 -35.5 -14t-14.5 -35t14.5 -35t35.5 -14t35.5 14t14.5 35t-14.5 35t-35.5 14z" />
    <glyph glyph-name="plusminus" unicode="&#xb1;" horiz-adv-x="388" 
d="M38 222h139v118h-139v35h139v136h34v-136h139v-35h-139v-118h139v-35h-312v35z" />
    <glyph glyph-name="twosuperior" unicode="&#xb2;" horiz-adv-x="271" 
d="M138 800q50 0 73.5 -31t23.5 -83q0 -35 -16.5 -67.5t-40 -57.5l-47.5 -50.5t-41 -58t-18 -68.5v-4h158v-29h-189v23q0 43 16.5 79.5t40.5 63l48 50.5t40.5 54.5t16.5 63.5q0 86 -66 86t-66 -85v-30h-30v29q0 52 23.5 83.5t73.5 31.5z" />
    <glyph glyph-name="threesuperior" unicode="&#xb3;" horiz-adv-x="271" 
d="M136 800q49 0 72.5 -30.5t23.5 -82.5v-11q0 -71 -56 -92q56 -20 56 -90v-35q0 -52 -23.5 -82.5t-72.5 -30.5t-73 30.5t-24 82.5v25h30v-27q0 -82 66 -82t66 85v34q0 34 -17 53.5t-48 19.5h-30v29h31q29 0 47 21.5t17 52.5v16q0 85 -66 85t-66 -82v-18h-30v16
q0 52 24 82.5t73 30.5z" />
    <glyph glyph-name="acute" unicode="&#xb4;" horiz-adv-x="197" 
d="M107 848h47l-84 -95h-35z" />
    <glyph glyph-name="uni00B5" unicode="&#xb5;" horiz-adv-x="399" 
d="M307 0v91q-13 -44 -43 -69.5t-73 -25.5q-77 0 -98 76l1 -164h-46v592h46v-329q0 -132 104 -132q54 0 79.5 35.5t25.5 96.5v329h46v-500h-42z" />
    <glyph glyph-name="paragraph" unicode="&#xb6;" horiz-adv-x="396" 
d="M310 665h-125v-727h-35v351q-67 3 -96.5 44.5t-29.5 121.5v79q0 81 31 123t108 43h182v-762h-35v727z" />
    <glyph glyph-name="periodcentered" unicode="&#xb7;" horiz-adv-x="125" 
d="M40 404h45v-88h-45v88z" />
    <glyph glyph-name="cedilla" unicode="&#xb8;" horiz-adv-x="247" 
d="M137 5v-44q75 -2 75 -51q0 -62 -89 -60q-37 0 -62.5 14.5t-25.5 44.5v6h33v-5q0 -20 16.5 -29.5t38.5 -10.5q22 0 38.5 10t16.5 31q0 38 -57 38h-7v56h23z" />
    <glyph glyph-name="onesuperior" unicode="&#xb9;" horiz-adv-x="178" 
d="M35 710v25q53 3 74 60h25v-444h-32v393q-26 -30 -67 -34z" />
    <glyph glyph-name="ordmasculine" unicode="&#xba;" horiz-adv-x="274" 
d="M137 705q50 0 74.5 -31t24.5 -82v-151q0 -51 -24.5 -82t-74.5 -31t-74.5 31t-24.5 82v151q0 51 24.5 82t74.5 31zM137 676q-68 0 -68 -82v-155q0 -82 68 -82q67 0 67 82v155q0 82 -67 82zM39 269h197v-31h-197v31z" />
    <glyph glyph-name="guillemotright" unicode="&#xbb;" horiz-adv-x="285" 
d="M31 101l65 250l-65 245h42l66 -245l-66 -250h-42zM147 101l64 250l-64 245h42l65 -245l-65 -250h-42z" />
    <glyph glyph-name="onequarter" unicode="&#xbc;" horiz-adv-x="528" 
d="M116 256v393q-26 -30 -66 -34l-1 25q55 3 74 60h25v-444h-32zM418 700l-276 -700h-29l276 700h29zM459 96v-96h-31v96h-152v29l147 319h36v-319h36v-29h-36zM306 125h122v259z" />
    <glyph glyph-name="onehalf" unicode="&#xbd;" horiz-adv-x="573" 
d="M116 256v393q-26 -30 -66 -34l-1 25q55 3 74 60h25v-444h-32zM378 700h30l-276 -700h-30zM439 449q97 0 97 -114q0 -35 -16.5 -67t-40 -57l-47 -50.5t-40.5 -58t-18 -68.5v-5h157v-29h-189v23q0 43 17 79.5t41 63l47.5 50.5t40.5 54.5t17 63.5q0 86 -66 86q-67 0 -67 -85
v-30h-30v29q0 52 24 83.5t73 31.5z" />
    <glyph glyph-name="threequarters" unicode="&#xbe;" horiz-adv-x="578" 
d="M136 705q49 0 72.5 -30.5t23.5 -82.5v-11q0 -71 -56 -92q56 -20 56 -90v-35q0 -52 -23.5 -82.5t-72.5 -30.5t-73 30.5t-24 82.5v25h30v-27q0 -82 66 -82t66 85v34q0 34 -17 53.5t-48 19.5h-30v29h31q29 0 47 21.5t17 52.5v16q0 85 -66 85t-66 -82v-18h-30v16
q0 52 24 82.5t73 30.5zM166 0l276 700h30l-276 -700h-30zM477 0v96h-151v29l147 319h36v-319h36v-29h-36v-96h-32zM477 384l-121 -259h121v259z" />
    <glyph glyph-name="questiondown" unicode="&#xbf;" horiz-adv-x="363" 
d="M172 700h45v-87h-45v87zM173 544h41q6 -18 6 -39q0 -42 -15 -78t-36 -63l-42 -54t-35.5 -63t-14.5 -77q0 -134 105 -134q104 0 104 135v49h44v-46q0 -81 -36.5 -130.5t-112.5 -49.5q-78 0 -114 48.5t-36 129.5q0 52 23 98.5t50 75t50 71.5t23 90q0 21 -4 37z" />
    <glyph glyph-name="Agrave" unicode="&#xc0;" horiz-adv-x="436" 
d="M135 832h50l71 -95h-36zM325 155h-218l-35 -155h-42l153 701h67l156 -701h-46zM215 648l-101 -453h204z" />
    <glyph glyph-name="Aacute" unicode="&#xc1;" horiz-adv-x="436" 
d="M242 833h48l-84 -95h-35zM325 155h-218l-35 -155h-42l153 701h67l156 -701h-46zM215 648l-101 -453h204z" />
    <glyph glyph-name="Acircumflex" unicode="&#xc2;" horiz-adv-x="436" 
d="M216 800l-61 -63h-43l84 90h40l85 -90h-44zM325 155h-218l-35 -155h-42l153 701h67l156 -701h-46zM215 648l-101 -453h204z" />
    <glyph glyph-name="Atilde" unicode="&#xc3;" horiz-adv-x="436" 
d="M170 814q20 0 49.5 -17t43.5 -17q22 1 37 31l25 -17q-21 -47 -58 -47q-19 -1 -48.5 16t-44.5 17q-26 0 -42 -30l-25 16q21 46 63 48zM325 155h-218l-35 -155h-42l153 701h67l156 -701h-46zM215 648l-101 -453h204z" />
    <glyph glyph-name="Adieresis" unicode="&#xc4;" horiz-adv-x="436" 
d="M147 821h41v-84h-41v84zM244 821h41v-84h-41v84zM325 155h-218l-35 -155h-42l153 701h67l156 -701h-46zM215 648l-101 -453h204z" />
    <glyph glyph-name="Aring" unicode="&#xc5;" horiz-adv-x="436" 
d="M216 872q28 0 47.5 -19t19.5 -47t-19.5 -47.5t-47.5 -19.5t-47.5 19.5t-19.5 47.5t19.5 47t47.5 19zM216 847q-18 0 -30.5 -11.5t-12.5 -29.5t12.5 -30t30.5 -12t30.5 12t12.5 30t-12.5 29.5t-30.5 11.5zM325 155h-218l-35 -155h-42l153 701h67l156 -701h-46zM215 648
l-101 -453h204z" />
    <glyph glyph-name="AE" unicode="&#xc6;" horiz-adv-x="589" 
d="M349 376h169v-42h-169v-292h204v-42h-250v157h-175l-57 -157h-44l249 700h277v-42h-204v-282zM303 643l-163 -445h163v445z" />
    <glyph glyph-name="Ccedilla" unicode="&#xc7;" horiz-adv-x="374" 
d="M188 706q77 0 114 -48.5t37 -128.5v-58h-44v61q0 60 -25.5 96t-80.5 36t-80.5 -36t-25.5 -96v-364q0 -131 106 -131t106 131v83h44v-80q0 -77 -34.5 -125t-105.5 -52v-28q35 -1 55 -15.5t20 -40.5q0 -31 -23.5 -48t-65.5 -16q-41 0 -64.5 16.5t-23.5 46.5v6h32v-5
q0 -17 15 -27.5t41 -11.5q57 0 57 40q0 37 -60 37h-7v47q-70 4 -104 51.5t-34 124.5v358q0 80 37 128.5t114 48.5z" />
    <glyph glyph-name="Egrave" unicode="&#xc8;" horiz-adv-x="351" 
d="M103 842h50l71 -95h-37zM86 376h191v-42h-191v-292h230v-42h-276v700h276v-42h-230v-282z" />
    <glyph glyph-name="Eacute" unicode="&#xc9;" horiz-adv-x="351" 
d="M212 835h48l-84 -95h-35zM86 376h191v-42h-191v-292h230v-42h-276v700h276v-42h-230v-282z" />
    <glyph glyph-name="Ecircumflex" unicode="&#xca;" horiz-adv-x="351" 
d="M177 805l-61 -64h-43l84 90h40l85 -90h-44zM86 376h191v-42h-191v-292h230v-42h-276v700h276v-42h-230v-282z" />
    <glyph glyph-name="Edieresis" unicode="&#xcb;" horiz-adv-x="351" 
d="M109 825h40v-85h-40v85zM205 825h41v-85h-41v85zM86 376h191v-42h-191v-292h230v-42h-276v700h276v-42h-230v-282z" />
    <glyph glyph-name="Igrave" unicode="&#xcc;" horiz-adv-x="126" 
d="M60 740l-84 95h49l71 -95h-36zM40 0v700h46v-700h-46z" />
    <glyph glyph-name="Iacute" unicode="&#xcd;" horiz-adv-x="126" 
d="M25 741l71 95h48l-84 -95h-35zM40 0v700h46v-700h-46z" />
    <glyph glyph-name="Icircumflex" unicode="&#xce;" horiz-adv-x="126" 
d="M43 830h40l84 -90h-43l-61 64l-61 -64h-43zM40 0v700h46v-700h-46z" />
    <glyph glyph-name="Idieresis" unicode="&#xcf;" horiz-adv-x="126" 
d="M-6 825h41v-84h-41v84zM91 825h41v-84h-41v84zM40 700h46v-700h-46v700z" />
    <glyph glyph-name="Eth" unicode="&#xd0;" horiz-adv-x="385" 
d="M40 700h154q78 0 116.5 -46.5t38.5 -127.5v-352q0 -81 -38.5 -127.5t-116.5 -46.5h-154v331h-46v38h46v331zM175 369v-38h-89v-289h107q110 0 110 130v356q0 60 -27 95t-83 35h-107v-289h89z" />
    <glyph glyph-name="Ntilde" unicode="&#xd1;" horiz-adv-x="391" 
d="M281 819l24 -17q-19 -45 -58 -47q-19 -1 -48.5 16t-44.5 17q-25 0 -42 -30l-24 16q19 46 62 48q20 1 49.5 -16.5t43.5 -16.5q22 0 38 30zM82 624v-624h-42v700h60l210 -591v591h42v-700h-51z" />
    <glyph glyph-name="Ograve" unicode="&#xd2;" horiz-adv-x="381" 
d="M108 842h50l71 -95h-37zM190 706q78 0 116.5 -48t38.5 -129v-358q0 -81 -38.5 -129t-116.5 -48q-76 0 -114.5 48.5t-38.5 128.5v358q0 80 38.5 128.5t114.5 48.5zM190 664q-55 0 -81 -35.5t-26 -96.5v-364q0 -61 26 -96.5t81 -35.5q56 0 82.5 35.5t26.5 96.5v364
q0 61 -26.5 96.5t-82.5 35.5z" />
    <glyph glyph-name="Oacute" unicode="&#xd3;" horiz-adv-x="381" 
d="M223 842h48l-84 -95h-35zM190 706q78 0 116.5 -48t38.5 -129v-358q0 -81 -38.5 -129t-116.5 -48q-76 0 -114.5 48.5t-38.5 128.5v358q0 80 38.5 128.5t114.5 48.5zM190 664q-55 0 -81 -35.5t-26 -96.5v-364q0 -61 26 -96.5t81 -35.5q56 0 82.5 35.5t26.5 96.5v364
q0 61 -26.5 96.5t-82.5 35.5z" />
    <glyph glyph-name="Ocircumflex" unicode="&#xd4;" horiz-adv-x="381" 
d="M190 809l-61 -64h-43l84 90h40l84 -90h-43zM190 706q78 0 116.5 -48t38.5 -129v-358q0 -81 -38.5 -129t-116.5 -48q-76 0 -114.5 48.5t-38.5 128.5v358q0 80 38.5 128.5t114.5 48.5zM190 664q-55 0 -81 -35.5t-26 -96.5v-364q0 -61 26 -96.5t81 -35.5q56 0 82.5 35.5
t26.5 96.5v364q0 61 -26.5 96.5t-82.5 35.5z" />
    <glyph glyph-name="Otilde" unicode="&#xd5;" horiz-adv-x="381" 
d="M278 816l25 -16q-19 -47 -58 -48q-19 -1 -48.5 16.5t-44.5 17.5q-26 0 -42 -31l-25 17q22 47 63 47q20 1 49.5 -16t43.5 -17q24 1 37 30zM190 706q78 0 116.5 -48t38.5 -129v-358q0 -81 -38.5 -129t-116.5 -48q-76 0 -114.5 48.5t-38.5 128.5v358q0 80 38.5 128.5
t114.5 48.5zM190 664q-55 0 -81 -35.5t-26 -96.5v-364q0 -61 26 -96.5t81 -35.5q56 0 82.5 35.5t26.5 96.5v364q0 61 -26.5 96.5t-82.5 35.5z" />
    <glyph glyph-name="Odieresis" unicode="&#xd6;" horiz-adv-x="381" 
d="M121 830h41v-85h-41v85zM218 830h41v-85h-41v85zM190 706q78 0 116.5 -48t38.5 -129v-358q0 -81 -38.5 -129t-116.5 -48q-76 0 -114.5 48.5t-38.5 128.5v358q0 80 38.5 128.5t114.5 48.5zM190 664q-55 0 -81 -35.5t-26 -96.5v-364q0 -61 26 -96.5t81 -35.5
q56 0 82.5 35.5t26.5 96.5v364q0 61 -26.5 96.5t-82.5 35.5z" />
    <glyph glyph-name="multiply" unicode="&#xd7;" horiz-adv-x="337" 
d="M297 244l-23 -24l-105 106l-106 -106l-24 24l106 105l-105 105l23 24l106 -105l105 105l23 -23l-105 -106z" />
    <glyph glyph-name="Oslash" unicode="&#xd8;" horiz-adv-x="381" 
d="M339 707l-23 -62q29 -43 29 -116v-358q0 -81 -38.5 -129t-116.5 -48q-69 0 -107 40l-20 -51l-23 8l25 66q-28 44 -28 114v358q0 80 38.5 128.5t114.5 48.5q68 0 108 -40l19 49zM83 532v-364q0 -24 5 -51l192 501q-28 46 -90 46q-55 0 -81 -35.5t-26 -96.5zM299 168v364
q0 28 -6 54l-192 -503q28 -47 89 -47q56 0 82.5 35.5t26.5 96.5z" />
    <glyph glyph-name="Ugrave" unicode="&#xd9;" 
d="M105 836h50l71 -95h-37zM337 700v-529q0 -80 -36.5 -128.5t-112.5 -48.5t-113 48.5t-37 128.5v529h46v-531q0 -133 105 -133t105 133v531h43z" />
    <glyph glyph-name="Uacute" unicode="&#xda;" 
d="M227 842h48l-84 -95h-35zM337 700v-529q0 -80 -36.5 -128.5t-112.5 -48.5t-113 48.5t-37 128.5v529h46v-531q0 -133 105 -133t105 133v531h43z" />
    <glyph glyph-name="Ucircumflex" unicode="&#xdb;" 
d="M189 809l-61 -64h-43l84 90h40l85 -90h-44zM337 700v-529q0 -80 -36.5 -128.5t-112.5 -48.5t-113 48.5t-37 128.5v529h46v-531q0 -133 105 -133t105 133v531h43z" />
    <glyph glyph-name="Udieresis" unicode="&#xdc;" 
d="M119 828h41v-85h-41v85zM216 828h41v-85h-41v85zM337 700v-529q0 -80 -36.5 -128.5t-112.5 -48.5t-113 48.5t-37 128.5v529h46v-531q0 -133 105 -133t105 133v531h43z" />
    <glyph glyph-name="Yacute" unicode="&#xdd;" horiz-adv-x="415" 
d="M247 835h47l-84 -95h-35zM184 0v269l-157 431h48l134 -368l134 368h45l-158 -431v-269h-46z" />
    <glyph glyph-name="Thorn" unicode="&#xde;" horiz-adv-x="377" 
d="M86 578h99q150 0 150 -170v-76q0 -166 -162 -166h-87v-166h-46v700h46v-122zM86 208h87q61 0 88.5 28.5t27.5 92.5v81q0 61 -24 93t-80 32h-99v-327z" />
    <glyph glyph-name="germandbls" unicode="&#xdf;" horiz-adv-x="712" 
d="M183 706q76 0 112.5 -47.5t36.5 -127.5v-15h-44v18q0 130 -104 130t-104 -129q0 -34 14 -63t36.5 -50.5t49 -41l53.5 -40t49.5 -43.5t36.5 -56t14 -72q0 -80 -37 -127.5t-114 -47.5t-114 47.5t-37 127.5v36h44v-39q0 -129 106 -129t106 129q0 34 -14 62.5t-36.5 49.5
t-49.5 41l-53.5 40.5t-49 43.5t-36.5 56t-14 73q0 81 37 127t112 47zM530 706q76 0 112.5 -47.5t36.5 -127.5v-15h-44v18q0 130 -104 130t-104 -129q0 -34 14 -63t36.5 -50.5t49.5 -41l53.5 -40t49 -43.5t36.5 -56t14 -72q0 -80 -37 -127.5t-114 -47.5t-114 47.5t-37 127.5
v36h44v-39q0 -129 106 -129t106 129q0 34 -14 62.5t-36.5 49.5t-49 41l-53.5 40.5t-49.5 43.5t-36.5 56t-14 73q0 81 37 127t112 47z" />
    <glyph glyph-name="agrave" unicode="&#xe0;" horiz-adv-x="436" 
d="M135 832h50l71 -95h-36zM325 155h-218l-35 -155h-42l153 701h67l156 -701h-46zM215 648l-101 -453h204z" />
    <glyph glyph-name="aacute" unicode="&#xe1;" horiz-adv-x="436" 
d="M242 833h48l-84 -95h-35zM325 155h-218l-35 -155h-42l153 701h67l156 -701h-46zM215 648l-101 -453h204z" />
    <glyph glyph-name="acircumflex" unicode="&#xe2;" horiz-adv-x="436" 
d="M216 800l-61 -63h-43l84 90h40l85 -90h-44zM325 155h-218l-35 -155h-42l153 701h67l156 -701h-46zM215 648l-101 -453h204z" />
    <glyph glyph-name="atilde" unicode="&#xe3;" horiz-adv-x="436" 
d="M170 814q20 0 49.5 -17t43.5 -17q22 1 37 31l25 -17q-21 -47 -58 -47q-19 -1 -48.5 16t-44.5 17q-26 0 -42 -30l-25 16q21 46 63 48zM325 155h-218l-35 -155h-42l153 701h67l156 -701h-46zM215 648l-101 -453h204z" />
    <glyph glyph-name="adieresis" unicode="&#xe4;" horiz-adv-x="436" 
d="M147 821h41v-84h-41v84zM244 821h41v-84h-41v84zM325 155h-218l-35 -155h-42l153 701h67l156 -701h-46zM215 648l-101 -453h204z" />
    <glyph glyph-name="aring" unicode="&#xe5;" horiz-adv-x="436" 
d="M216 872q28 0 47.5 -19t19.5 -47t-19.5 -47.5t-47.5 -19.5t-47.5 19.5t-19.5 47.5t19.5 47t47.5 19zM216 847q-18 0 -30.5 -11.5t-12.5 -29.5t12.5 -30t30.5 -12t30.5 12t12.5 30t-12.5 29.5t-30.5 11.5zM325 155h-218l-35 -155h-42l153 701h67l156 -701h-46zM215 648
l-101 -453h204z" />
    <glyph glyph-name="ae" unicode="&#xe6;" horiz-adv-x="589" 
d="M349 376h169v-42h-169v-292h204v-42h-250v157h-175l-57 -157h-44l249 700h277v-42h-204v-282zM303 643l-163 -445h163v445z" />
    <glyph glyph-name="ccedilla" unicode="&#xe7;" horiz-adv-x="374" 
d="M188 706q77 0 114 -48.5t37 -128.5v-58h-44v61q0 60 -25.5 96t-80.5 36t-80.5 -36t-25.5 -96v-364q0 -131 106 -131t106 131v83h44v-80q0 -77 -34.5 -125t-105.5 -52v-28q35 -1 55 -15.5t20 -40.5q0 -31 -23.5 -48t-65.5 -16q-41 0 -64.5 16.5t-23.5 46.5v6h32v-5
q0 -17 15 -27.5t41 -11.5q57 0 57 40q0 37 -60 37h-7v47q-70 4 -104 51.5t-34 124.5v358q0 80 37 128.5t114 48.5z" />
    <glyph glyph-name="egrave" unicode="&#xe8;" horiz-adv-x="351" 
d="M103 842h50l71 -95h-37zM86 376h191v-42h-191v-292h230v-42h-276v700h276v-42h-230v-282z" />
    <glyph glyph-name="eacute" unicode="&#xe9;" horiz-adv-x="351" 
d="M212 835h48l-84 -95h-35zM86 376h191v-42h-191v-292h230v-42h-276v700h276v-42h-230v-282z" />
    <glyph glyph-name="ecircumflex" unicode="&#xea;" horiz-adv-x="351" 
d="M177 805l-61 -64h-43l84 90h40l85 -90h-44zM86 376h191v-42h-191v-292h230v-42h-276v700h276v-42h-230v-282z" />
    <glyph glyph-name="edieresis" unicode="&#xeb;" horiz-adv-x="351" 
d="M109 825h40v-85h-40v85zM205 825h41v-85h-41v85zM86 376h191v-42h-191v-292h230v-42h-276v700h276v-42h-230v-282z" />
    <glyph glyph-name="igrave" unicode="&#xec;" horiz-adv-x="126" 
d="M60 740l-84 95h49l71 -95h-36zM40 0v700h46v-700h-46z" />
    <glyph glyph-name="iacute" unicode="&#xed;" horiz-adv-x="126" 
d="M25 741l71 95h48l-84 -95h-35zM40 0v700h46v-700h-46z" />
    <glyph glyph-name="icircumflex" unicode="&#xee;" horiz-adv-x="126" 
d="M43 830h40l84 -90h-43l-61 64l-61 -64h-43zM40 0v700h46v-700h-46z" />
    <glyph glyph-name="idieresis" unicode="&#xef;" horiz-adv-x="126" 
d="M-6 825h41v-84h-41v84zM91 825h41v-84h-41v84zM40 700h46v-700h-46v700z" />
    <glyph glyph-name="eth" unicode="&#xf0;" horiz-adv-x="385" 
d="M40 700h154q78 0 116.5 -46.5t38.5 -127.5v-352q0 -81 -38.5 -127.5t-116.5 -46.5h-154v330h-42v38h42v332zM176 368v-38h-90v-288h107q110 0 110 130v356q0 60 -27 95t-83 35h-107v-290h90z" />
    <glyph glyph-name="ntilde" unicode="&#xf1;" horiz-adv-x="391" 
d="M281 819l24 -17q-19 -45 -58 -47q-19 -1 -48.5 16t-44.5 17q-25 0 -42 -30l-24 16q19 46 62 48q20 1 49.5 -16.5t43.5 -16.5q22 0 38 30zM82 624v-624h-42v700h60l210 -591v591h42v-700h-51z" />
    <glyph glyph-name="ograve" unicode="&#xf2;" horiz-adv-x="381" 
d="M108 842h50l71 -95h-37zM190 706q78 0 116.5 -48t38.5 -129v-358q0 -81 -38.5 -129t-116.5 -48q-76 0 -114.5 48.5t-38.5 128.5v358q0 80 38.5 128.5t114.5 48.5zM190 664q-55 0 -81 -35.5t-26 -96.5v-364q0 -61 26 -96.5t81 -35.5q56 0 82.5 35.5t26.5 96.5v364
q0 61 -26.5 96.5t-82.5 35.5z" />
    <glyph glyph-name="oacute" unicode="&#xf3;" horiz-adv-x="381" 
d="M223 842h48l-84 -95h-35zM190 706q78 0 116.5 -48t38.5 -129v-358q0 -81 -38.5 -129t-116.5 -48q-76 0 -114.5 48.5t-38.5 128.5v358q0 80 38.5 128.5t114.5 48.5zM190 664q-55 0 -81 -35.5t-26 -96.5v-364q0 -61 26 -96.5t81 -35.5q56 0 82.5 35.5t26.5 96.5v364
q0 61 -26.5 96.5t-82.5 35.5z" />
    <glyph glyph-name="ocircumflex" unicode="&#xf4;" horiz-adv-x="381" 
d="M190 809l-61 -64h-43l84 90h40l84 -90h-43zM190 706q78 0 116.5 -48t38.5 -129v-358q0 -81 -38.5 -129t-116.5 -48q-76 0 -114.5 48.5t-38.5 128.5v358q0 80 38.5 128.5t114.5 48.5zM190 664q-55 0 -81 -35.5t-26 -96.5v-364q0 -61 26 -96.5t81 -35.5q56 0 82.5 35.5
t26.5 96.5v364q0 61 -26.5 96.5t-82.5 35.5z" />
    <glyph glyph-name="otilde" unicode="&#xf5;" horiz-adv-x="381" 
d="M278 816l25 -16q-19 -47 -58 -48q-19 -1 -48.5 16.5t-44.5 17.5q-26 0 -42 -31l-25 17q22 47 63 47q20 1 49.5 -16t43.5 -17q24 1 37 30zM190 706q78 0 116.5 -48t38.5 -129v-358q0 -81 -38.5 -129t-116.5 -48q-76 0 -114.5 48.5t-38.5 128.5v358q0 80 38.5 128.5
t114.5 48.5zM190 664q-55 0 -81 -35.5t-26 -96.5v-364q0 -61 26 -96.5t81 -35.5q56 0 82.5 35.5t26.5 96.5v364q0 61 -26.5 96.5t-82.5 35.5z" />
    <glyph glyph-name="odieresis" unicode="&#xf6;" horiz-adv-x="381" 
d="M121 830h41v-85h-41v85zM218 830h41v-85h-41v85zM190 706q78 0 116.5 -48t38.5 -129v-358q0 -81 -38.5 -129t-116.5 -48q-76 0 -114.5 48.5t-38.5 128.5v358q0 80 38.5 128.5t114.5 48.5zM190 664q-55 0 -81 -35.5t-26 -96.5v-364q0 -61 26 -96.5t81 -35.5
q56 0 82.5 35.5t26.5 96.5v364q0 61 -26.5 96.5t-82.5 35.5z" />
    <glyph glyph-name="divide" unicode="&#xf7;" horiz-adv-x="305" 
d="M130 499h44v-88h-44v88zM35 367h236v-34h-236v34zM130 289h44v-88h-44v88z" />
    <glyph glyph-name="oslash" unicode="&#xf8;" horiz-adv-x="381" 
d="M339 707l-23 -62q29 -43 29 -116v-358q0 -81 -38.5 -129t-116.5 -48q-69 0 -107 40l-20 -51l-23 8l25 66q-28 44 -28 114v358q0 80 38.5 128.5t114.5 48.5q68 0 108 -40l19 49zM83 532v-364q0 -24 5 -51l192 501q-28 46 -90 46q-55 0 -81 -35.5t-26 -96.5zM299 168v364
q0 28 -6 54l-192 -503q28 -47 89 -47q56 0 82.5 35.5t26.5 96.5z" />
    <glyph glyph-name="ugrave" unicode="&#xf9;" 
d="M105 836h50l71 -95h-37zM337 700v-529q0 -80 -36.5 -128.5t-112.5 -48.5t-113 48.5t-37 128.5v529h46v-531q0 -133 105 -133t105 133v531h43z" />
    <glyph glyph-name="uacute" unicode="&#xfa;" 
d="M227 842h48l-84 -95h-35zM337 700v-529q0 -80 -36.5 -128.5t-112.5 -48.5t-113 48.5t-37 128.5v529h46v-531q0 -133 105 -133t105 133v531h43z" />
    <glyph glyph-name="ucircumflex" unicode="&#xfb;" 
d="M189 809l-61 -64h-43l84 90h40l85 -90h-44zM337 700v-529q0 -80 -36.5 -128.5t-112.5 -48.5t-113 48.5t-37 128.5v529h46v-531q0 -133 105 -133t105 133v531h43z" />
    <glyph glyph-name="udieresis" unicode="&#xfc;" 
d="M119 828h41v-85h-41v85zM216 828h41v-85h-41v85zM337 700v-529q0 -80 -36.5 -128.5t-112.5 -48.5t-113 48.5t-37 128.5v529h46v-531q0 -133 105 -133t105 133v531h43z" />
    <glyph glyph-name="yacute" unicode="&#xfd;" horiz-adv-x="415" 
d="M247 835h47l-84 -95h-35zM184 0v269l-157 431h48l134 -368l134 368h45l-158 -431v-269h-46z" />
    <glyph glyph-name="thorn" unicode="&#xfe;" horiz-adv-x="377" 
d="M86 578h99q150 0 150 -170v-76q0 -166 -162 -166h-87v-166h-46v700h46v-122zM86 208h87q61 0 88.5 28.5t27.5 92.5v81q0 61 -24 93t-80 32h-99v-327z" />
    <glyph glyph-name="ydieresis" unicode="&#xff;" horiz-adv-x="415" 
d="M139 825h41v-84h-41v84zM236 825h41v-84h-41v84zM184 0v269l-157 431h48l134 -368l134 368h45l-158 -431v-269h-46z" />
    <glyph glyph-name="Amacron" unicode="&#x100;" horiz-adv-x="436" 
d="M119 793h195v-33h-195v33zM325 155h-218l-35 -155h-42l153 701h67l156 -701h-46zM215 648l-101 -453h204z" />
    <glyph glyph-name="amacron" unicode="&#x101;" horiz-adv-x="436" 
d="M119 793h195v-33h-195v33zM325 155h-218l-35 -155h-42l153 701h67l156 -701h-46zM215 648l-101 -453h204z" />
    <glyph glyph-name="Abreve" unicode="&#x102;" horiz-adv-x="436" 
d="M284 821h30q-1 -41 -28 -64.5t-70 -23.5q-42 0 -68.5 23.5t-27.5 64.5h30q1 -28 19.5 -42.5t46.5 -14.5t47.5 14.5t20.5 42.5zM325 155h-218l-35 -155h-42l153 701h67l156 -701h-46zM215 648l-101 -453h204z" />
    <glyph glyph-name="abreve" unicode="&#x103;" horiz-adv-x="436" 
d="M284 821h30q-1 -41 -28 -64.5t-70 -23.5q-42 0 -68.5 23.5t-27.5 64.5h30q1 -28 19.5 -42.5t46.5 -14.5t47.5 14.5t20.5 42.5zM325 155h-218l-35 -155h-42l153 701h67l156 -701h-46zM215 648l-101 -453h204z" />
    <glyph glyph-name="Aogonek" unicode="&#x104;" horiz-adv-x="436" 
d="M406 0h-9q-52 -42 -49 -81q1 -29 40 -29q24 0 44 13v-30q-25 -13 -56 -13q-63 2 -64 51q-2 46 48 87l-35 157h-218l-35 -155h-42l153 701h67zM215 648l-101 -453h204z" />
    <glyph glyph-name="aogonek" unicode="&#x105;" horiz-adv-x="436" 
d="M406 0h-15q-19 -15 -31 -38t-11 -42q1 -16 12 -24t27 -8q24 0 44 13v-28q-25 -13 -56 -13q-63 2 -64 51q-2 46 48 87l-35 157h-218l-35 -155h-42l153 701h67zM215 648l-101 -453h204z" />
    <glyph glyph-name="Cacute" unicode="&#x106;" horiz-adv-x="374" 
d="M225 842h48l-84 -95h-35zM188 706q77 0 114 -48.5t37 -128.5v-58h-44v61q0 60 -25.5 96t-80.5 36t-80.5 -36t-25.5 -96v-364q0 -131 106 -131t106 131v83h44v-80q0 -80 -37 -128.5t-114 -48.5t-114 48.5t-37 128.5v358q0 80 37 128.5t114 48.5z" />
    <glyph glyph-name="cacute" unicode="&#x107;" horiz-adv-x="374" 
d="M225 842h48l-84 -95h-35zM188 706q77 0 114 -48.5t37 -128.5v-58h-44v61q0 60 -25.5 96t-80.5 36t-80.5 -36t-25.5 -96v-364q0 -131 106 -131t106 131v83h44v-80q0 -80 -37 -128.5t-114 -48.5t-114 48.5t-37 128.5v358q0 80 37 128.5t114 48.5z" />
    <glyph glyph-name="Ccircumflex" unicode="&#x108;" horiz-adv-x="374" 
d="M191 807l-61 -64h-43l84 90h40l85 -90h-44zM188 706q77 0 114 -48.5t37 -128.5v-58h-44v61q0 60 -25.5 96t-80.5 36t-80.5 -36t-25.5 -96v-364q0 -131 106 -131t106 131v83h44v-80q0 -80 -37 -128.5t-114 -48.5t-114 48.5t-37 128.5v358q0 80 37 128.5t114 48.5z" />
    <glyph glyph-name="ccircumflex" unicode="&#x109;" horiz-adv-x="374" 
d="M191 807l-61 -64h-43l84 90h40l85 -90h-44zM188 706q77 0 114 -48.5t37 -128.5v-58h-44v61q0 60 -25.5 96t-80.5 36t-80.5 -36t-25.5 -96v-364q0 -131 106 -131t106 131v83h44v-80q0 -80 -37 -128.5t-114 -48.5t-114 48.5t-37 128.5v358q0 80 37 128.5t114 48.5z" />
    <glyph glyph-name="Cdotaccent" unicode="&#x10a;" horiz-adv-x="374" 
d="M167 824h41v-84h-41v84zM188 706q77 0 114 -48.5t37 -128.5v-58h-44v61q0 60 -25.5 96t-80.5 36t-80.5 -36t-25.5 -96v-364q0 -131 106 -131t106 131v83h44v-80q0 -80 -37 -128.5t-114 -48.5t-114 48.5t-37 128.5v358q0 80 37 128.5t114 48.5z" />
    <glyph glyph-name="cdotaccent" unicode="&#x10b;" horiz-adv-x="374" 
d="M167 824h41v-84h-41v84zM188 706q77 0 114 -48.5t37 -128.5v-58h-44v61q0 60 -25.5 96t-80.5 36t-80.5 -36t-25.5 -96v-364q0 -131 106 -131t106 131v83h44v-80q0 -80 -37 -128.5t-114 -48.5t-114 48.5t-37 128.5v358q0 80 37 128.5t114 48.5z" />
    <glyph glyph-name="Ccaron" unicode="&#x10c;" horiz-adv-x="374" 
d="M89 834h42l62 -64l61 64h43l-84 -90h-40zM188 706q77 0 114 -48.5t37 -128.5v-58h-44v61q0 60 -25.5 96t-80.5 36t-80.5 -36t-25.5 -96v-364q0 -131 106 -131t106 131v83h44v-80q0 -80 -37 -128.5t-114 -48.5t-114 48.5t-37 128.5v358q0 80 37 128.5t114 48.5z" />
    <glyph glyph-name="ccaron" unicode="&#x10d;" horiz-adv-x="374" 
d="M89 834h42l62 -64l61 64h43l-84 -90h-40zM188 706q77 0 114 -48.5t37 -128.5v-58h-44v61q0 60 -25.5 96t-80.5 36t-80.5 -36t-25.5 -96v-364q0 -131 106 -131t106 131v83h44v-80q0 -80 -37 -128.5t-114 -48.5t-114 48.5t-37 128.5v358q0 80 37 128.5t114 48.5z" />
    <glyph glyph-name="Dcaron" unicode="&#x10e;" horiz-adv-x="385" 
d="M78 830h43l61 -64l61 64h44l-85 -90h-40zM40 700h154q78 0 116.5 -46.5t38.5 -127.5v-352q0 -81 -38.5 -127.5t-116.5 -46.5h-154v700zM86 42h107q110 0 110 130v356q0 60 -27 95t-83 35h-107v-616z" />
    <glyph glyph-name="dcaron" unicode="&#x10f;" horiz-adv-x="385" 
d="M78 830h43l61 -64l61 64h44l-85 -90h-40zM40 700h154q78 0 116.5 -46.5t38.5 -127.5v-352q0 -81 -38.5 -127.5t-116.5 -46.5h-154v700zM86 42h107q110 0 110 130v356q0 60 -27 95t-83 35h-107v-616z" />
    <glyph glyph-name="Dcroat" unicode="&#x110;" horiz-adv-x="385" 
d="M40 700h154q78 0 116.5 -46.5t38.5 -127.5v-352q0 -81 -38.5 -127.5t-116.5 -46.5h-154v330h-42v38h42v332zM176 368v-38h-90v-288h107q110 0 110 130v356q0 60 -27 95t-83 35h-107v-290h90z" />
    <glyph glyph-name="dcroat" unicode="&#x111;" horiz-adv-x="385" 
d="M40 700h154q78 0 116.5 -46.5t38.5 -127.5v-352q0 -81 -38.5 -127.5t-116.5 -46.5h-154v330h-42v38h42v332zM176 368v-38h-90v-288h107q110 0 110 130v356q0 60 -27 95t-83 35h-107v-290h90z" />
    <glyph glyph-name="Emacron" unicode="&#x112;" horiz-adv-x="351" 
d="M81 796h188v-34h-188v34zM86 376h191v-42h-191v-292h230v-42h-276v700h276v-42h-230v-282z" />
    <glyph glyph-name="emacron" unicode="&#x113;" horiz-adv-x="351" 
d="M81 796h188v-34h-188v34zM86 376h191v-42h-191v-292h230v-42h-276v700h276v-42h-230v-282z" />
    <glyph glyph-name="Ebreve" unicode="&#x114;" horiz-adv-x="351" 
d="M244 832h30q-1 -41 -28 -64.5t-70 -23.5q-42 0 -68.5 23.5t-27.5 64.5h30q1 -29 19.5 -43t46.5 -14q65 0 68 57zM86 376h191v-42h-191v-292h230v-42h-276v700h276v-42h-230v-282z" />
    <glyph glyph-name="ebreve" unicode="&#x115;" horiz-adv-x="351" 
d="M244 832h30q-1 -41 -28 -64.5t-70 -23.5q-42 0 -68.5 23.5t-27.5 64.5h30q1 -29 19.5 -43t46.5 -14q65 0 68 57zM86 376h191v-42h-191v-292h230v-42h-276v700h276v-42h-230v-282z" />
    <glyph glyph-name="Edotaccent" unicode="&#x116;" horiz-adv-x="351" 
d="M159 827h41v-85h-41v85zM86 376h191v-42h-191v-292h230v-42h-276v700h276v-42h-230v-282z" />
    <glyph glyph-name="edotaccent" unicode="&#x117;" horiz-adv-x="351" 
d="M159 827h41v-85h-41v85zM86 376h191v-42h-191v-292h230v-42h-276v700h276v-42h-230v-282z" />
    <glyph glyph-name="Eogonek" unicode="&#x118;" horiz-adv-x="351" 
d="M86 376h191v-42h-191v-292h230v-42h-22q-19 -15 -33 -38.5t-13 -41.5q1 -16 12 -24t27 -8q25 0 44 13v-30q-25 -13 -57 -13q-60 2 -63 53q-1 23 14 47.5t39 41.5h-224v700h276v-42h-230v-282z" />
    <glyph glyph-name="eogonek" unicode="&#x119;" horiz-adv-x="351" 
d="M86 376h191v-42h-191v-292h230v-42h-23q-19 -15 -32.5 -38.5t-12.5 -41.5q1 -16 12 -24t27 -8q25 0 44 13v-28q-25 -13 -56 -13q-61 2 -64 51q-1 23 14 47.5t39 41.5h-224v700h276v-42h-230v-282z" />
    <glyph glyph-name="Ecaron" unicode="&#x11a;" horiz-adv-x="351" 
d="M76 831h43l61 -64l61 64h43l-84 -90h-40zM86 376h191v-42h-191v-292h230v-42h-276v700h276v-42h-230v-282z" />
    <glyph glyph-name="ecaron" unicode="&#x11b;" horiz-adv-x="351" 
d="M76 831h43l61 -64l61 64h43l-84 -90h-40zM86 376h191v-42h-191v-292h230v-42h-276v700h276v-42h-230v-282z" />
    <glyph glyph-name="Gcircumflex" unicode="&#x11c;" 
d="M189 811l-61 -64h-43l84 90h40l84 -90h-43zM188 706q77 0 114 -48.5t37 -128.5v-52h-44v55q0 60 -25.5 96t-80.5 36t-80.5 -36t-25.5 -96v-364q0 -131 106 -131t106 131v151h-93v42h137v-190q0 -80 -37 -128.5t-114 -48.5t-114 48.5t-37 128.5v358q0 80 37 128.5
t114 48.5z" />
    <glyph glyph-name="gcircumflex" unicode="&#x11d;" 
d="M189 811l-61 -64h-43l84 90h40l84 -90h-43zM188 706q77 0 114 -48.5t37 -128.5v-52h-44v55q0 60 -25.5 96t-80.5 36t-80.5 -36t-25.5 -96v-364q0 -131 106 -131t106 131v151h-93v42h137v-190q0 -80 -37 -128.5t-114 -48.5t-114 48.5t-37 128.5v358q0 80 37 128.5
t114 48.5z" />
    <glyph glyph-name="Gbreve" unicode="&#x11e;" 
d="M256 834h30q-1 -41 -28 -64.5t-69 -23.5q-43 0 -69.5 23.5t-27.5 64.5h30q3 -57 67 -57t67 57zM188 706q77 0 114 -48.5t37 -128.5v-52h-44v55q0 60 -25.5 96t-80.5 36t-80.5 -36t-25.5 -96v-364q0 -131 106 -131t106 131v151h-93v42h137v-190q0 -80 -37 -128.5
t-114 -48.5t-114 48.5t-37 128.5v358q0 80 37 128.5t114 48.5z" />
    <glyph glyph-name="gbreve" unicode="&#x11f;" 
d="M256 834h30q-1 -41 -28 -64.5t-69 -23.5q-43 0 -69.5 23.5t-27.5 64.5h30q3 -57 67 -57t67 57zM188 706q77 0 114 -48.5t37 -128.5v-52h-44v55q0 60 -25.5 96t-80.5 36t-80.5 -36t-25.5 -96v-364q0 -131 106 -131t106 131v151h-93v42h137v-190q0 -80 -37 -128.5
t-114 -48.5t-114 48.5t-37 128.5v358q0 80 37 128.5t114 48.5z" />
    <glyph glyph-name="Gdotaccent" unicode="&#x120;" 
d="M174 828h40v-85h-40v85zM188 706q77 0 114 -48.5t37 -128.5v-52h-44v55q0 60 -25.5 96t-80.5 36t-80.5 -36t-25.5 -96v-364q0 -131 106 -131t106 131v151h-93v42h137v-190q0 -80 -37 -128.5t-114 -48.5t-114 48.5t-37 128.5v358q0 80 37 128.5t114 48.5z" />
    <glyph glyph-name="gdotaccent" unicode="&#x121;" 
d="M174 828h40v-85h-40v85zM188 706q77 0 114 -48.5t37 -128.5v-52h-44v55q0 60 -25.5 96t-80.5 36t-80.5 -36t-25.5 -96v-364q0 -131 106 -131t106 131v151h-93v42h137v-190q0 -80 -37 -128.5t-114 -48.5t-114 48.5t-37 128.5v358q0 80 37 128.5t114 48.5z" />
    <glyph glyph-name="uni0122" unicode="&#x122;" 
d="M188 706q77 0 114 -48.5t37 -128.5v-52h-44v55q0 60 -25.5 96t-80.5 36t-80.5 -36t-25.5 -96v-364q0 -131 106 -131t106 131v151h-93v42h137v-190q0 -80 -37 -128.5t-114 -48.5t-114 48.5t-37 128.5v358q0 80 37 128.5t114 48.5zM162 -176l19 59h-13v83h39v-79l-27 -63
h-18z" />
    <glyph glyph-name="uni0123" unicode="&#x123;" 
d="M188 706q77 0 114 -48.5t37 -128.5v-52h-44v55q0 60 -25.5 96t-80.5 36t-80.5 -36t-25.5 -96v-364q0 -131 106 -131t106 131v151h-93v42h137v-190q0 -80 -37 -128.5t-114 -48.5t-114 48.5t-37 128.5v358q0 80 37 128.5t114 48.5zM162 -176l20 59h-14v83h40v-79l-27 -63
h-19z" />
    <glyph glyph-name="Hcircumflex" unicode="&#x124;" horiz-adv-x="391" 
d="M195 809l-61 -64h-43l84 90h40l85 -90h-44zM304 329h-218v-329h-46v700h46v-329h218v329h47v-700h-47v329z" />
    <glyph glyph-name="hcircumflex" unicode="&#x125;" horiz-adv-x="391" 
d="M195 809l-61 -64h-43l84 90h40l85 -90h-44zM304 329h-218v-329h-46v700h46v-329h218v329h47v-700h-47v329z" />
    <glyph glyph-name="Hbar" unicode="&#x126;" horiz-adv-x="394" 
d="M389 525h-37v-525h-46v329h-218v-329h-46v525h-38v35h38v140h46v-140h218v140h46v-140h37v-35zM306 371v154h-218v-154h218z" />
    <glyph glyph-name="hbar" unicode="&#x127;" horiz-adv-x="394" 
d="M389 525h-37v-525h-46v329h-218v-329h-46v525h-38v35h38v140h46v-140h218v140h46v-140h37v-35zM306 371v154h-218v-154h218z" />
    <glyph glyph-name="Itilde" unicode="&#x128;" horiz-adv-x="126" 
d="M148 815l25 -16q-20 -47 -58 -48q-19 -1 -49 16t-45 17q-25 0 -41 -30l-25 17q22 47 62 47q21 1 50.5 -16t43.5 -17q21 0 37 30zM40 700h46v-700h-46v700z" />
    <glyph glyph-name="itilde" unicode="&#x129;" horiz-adv-x="126" 
d="M148 815l25 -16q-20 -47 -58 -48q-19 -1 -49 16t-45 17q-25 0 -41 -30l-25 17q22 47 62 47q21 1 50.5 -16t43.5 -17q21 0 37 30zM40 700h46v-700h-46v700z" />
    <glyph glyph-name="Imacron" unicode="&#x12a;" horiz-adv-x="126" 
d="M-21 793h168v-33h-168v33zM40 700h46v-700h-46v700z" />
    <glyph glyph-name="imacron" unicode="&#x12b;" horiz-adv-x="126" 
d="M-21 793h168v-33h-168v33zM40 700h46v-700h-46v700z" />
    <glyph glyph-name="Ibreve" unicode="&#x12c;" horiz-adv-x="126" 
d="M130 828h30q-1 -41 -28 -65t-69 -24q-43 0 -69.5 24t-27.5 65h30q1 -29 20 -43.5t47 -14.5t47 14.5t20 43.5zM40 0v700h46v-700h-46z" />
    <glyph glyph-name="ibreve" unicode="&#x12d;" horiz-adv-x="126" 
d="M130 828h30q-1 -41 -28 -65t-69 -24q-43 0 -69.5 24t-27.5 65h30q1 -29 20 -43.5t47 -14.5t47 14.5t20 43.5zM40 0v700h46v-700h-46z" />
    <glyph glyph-name="Iogonek" unicode="&#x12e;" horiz-adv-x="126" 
d="M86 0h-6q-20 -16 -32.5 -38.5t-11.5 -41.5q1 -16 12 -24t27 -8q26 0 44 13v-30q-25 -13 -56 -13q-61 2 -64 53q-2 50 48 89h-8l1 700h46v-700z" />
    <glyph glyph-name="iogonek" unicode="&#x12f;" horiz-adv-x="126" 
d="M86 0h-7q-18 -15 -31 -38.5t-12 -41.5q1 -16 12 -24t27 -8q26 0 44 13v-28q-25 -13 -56 -13q-61 2 -64 51q-2 49 53 89h-13l1 700h46v-700z" />
    <glyph glyph-name="Idotaccent" unicode="&#x130;" horiz-adv-x="126" 
d="M43 825h40v-84h-40v84zM40 700h46v-700h-46v700z" />
    <glyph glyph-name="dotlessi" unicode="&#x131;" horiz-adv-x="126" 
d="M40 700h46v-700h-46v700z" />
    <glyph glyph-name="IJ" unicode="&#x132;" horiz-adv-x="379" 
d="M40 700h46v-700h-46v700zM341 700v-528q0 -89 -37 -129t-107 -44q-27 0 -42 1v42h37q54 4 78.5 33.5t24.5 93.5v531h46z" />
    <glyph glyph-name="ij" unicode="&#x133;" horiz-adv-x="379" 
d="M40 700h46v-700h-46v700zM341 700v-528q0 -89 -37 -129t-107 -44q-27 0 -42 1v42h37q54 4 78.5 33.5t24.5 93.5v531h46z" />
    <glyph glyph-name="Jcircumflex" unicode="&#x134;" horiz-adv-x="253" 
d="M185 805l-61 -64h-43l84 90h40l85 -90h-44zM215 700v-528q0 -88 -36 -128.5t-104 -43.5q-22 -1 -46 0v42q15 -1 41 1q51 4 75 33.5t24 92.5v531h46z" />
    <glyph glyph-name="jcircumflex" unicode="&#x135;" horiz-adv-x="253" 
d="M185 805l-61 -64h-43l84 90h40l85 -90h-44zM215 700v-528q0 -88 -36 -128.5t-104 -43.5q-22 -1 -46 0v42q15 -1 41 1q51 4 75 33.5t24 92.5v531h46z" />
    <glyph glyph-name="uni0136" unicode="&#x136;" horiz-adv-x="404" 
d="M327 0l-193 329l-48 -76v-253h-46v700h46v-370l228 370h48l-200 -326l213 -374h-48zM169 -176l20 59h-14v83h40v-79l-27 -63h-19z" />
    <glyph glyph-name="uni0137" unicode="&#x137;" horiz-adv-x="404" 
d="M327 0l-193 329l-48 -76v-253h-46v700h46v-370l228 370h48l-200 -326l213 -374h-48zM169 -176l20 59h-14v83h40v-79l-27 -63h-19z" />
    <glyph glyph-name="kgreenlandic" unicode="&#x138;" horiz-adv-x="404" 
d="M327 0l-193 329l-48 -76v-253h-46v700h46v-370l228 370h48l-200 -326l213 -374h-48z" />
    <glyph glyph-name="Lacute" unicode="&#x139;" horiz-adv-x="335" 
d="M118 835h47l-84 -95h-35zM306 0h-266v700h46v-658h220v-42z" />
    <glyph glyph-name="lacute" unicode="&#x13a;" horiz-adv-x="335" 
d="M111 836h48l-84 -95h-35zM306 0h-266v700h46v-658h220v-42z" />
    <glyph glyph-name="uni013B" unicode="&#x13b;" horiz-adv-x="335" 
d="M306 0h-266v700h46v-658h220v-42zM153 -179l19 59h-13v83h39v-79l-27 -63h-18z" />
    <glyph glyph-name="uni013C" unicode="&#x13c;" horiz-adv-x="335" 
d="M306 0h-266v700h46v-658h220v-42zM159 -176l20 59h-14v83h39v-79l-27 -63h-18z" />
    <glyph glyph-name="Lcaron" unicode="&#x13d;" horiz-adv-x="335" 
d="M306 0h-266v700h46v-658h220v-42zM211 536l20 76h-16v88h45v-84l-29 -80h-20z" />
    <glyph glyph-name="lcaron" unicode="&#x13e;" horiz-adv-x="335" 
d="M306 0h-266v700h46v-658h220v-42zM211 536l20 76h-16v88h45v-84l-29 -80h-20z" />
    <glyph glyph-name="Ldot" unicode="&#x13f;" horiz-adv-x="335" 
d="M306 0h-266v700h46v-658h220v-42zM185 397h45v-88h-45v88z" />
    <glyph glyph-name="ldot" unicode="&#x140;" horiz-adv-x="335" 
d="M306 0h-266v700h46v-658h220v-42zM185 397h45v-88h-45v88z" />
    <glyph glyph-name="Lslash" unicode="&#x141;" horiz-adv-x="347" 
d="M195 412l-96 -95v-275h220v-42h-266v268l-53 -49v44l53 49v388h46v-339l96 96v-45z" />
    <glyph glyph-name="lslash" unicode="&#x142;" horiz-adv-x="161" 
d="M156 369l-52 -52v-317h-46v268l-53 -49v44l53 49v388h46v-339l52 53v-45z" />
    <glyph glyph-name="Nacute" unicode="&#x143;" horiz-adv-x="391" 
d="M235 837h47l-84 -95h-35zM82 625v-624h-42v700h60l210 -591v591h42v-700h-51z" />
    <glyph glyph-name="nacute" unicode="&#x144;" horiz-adv-x="391" 
d="M235 837h47l-84 -95h-35zM82 625v-624h-42v700h60l210 -591v591h42v-700h-51z" />
    <glyph glyph-name="uni0145" unicode="&#x145;" horiz-adv-x="391" 
d="M82 624v-624h-42v700h60l210 -591v591h42v-700h-51zM169 -176l19 59h-13v83h39v-79l-27 -63h-18z" />
    <glyph glyph-name="uni0146" unicode="&#x146;" horiz-adv-x="391" 
d="M82 624v-624h-42v700h60l210 -591v591h42v-700h-51zM169 -176l19 59h-13v83h39v-79l-27 -63h-18z" />
    <glyph glyph-name="Ncaron" unicode="&#x147;" horiz-adv-x="391" 
d="M93 835h43l61 -63l61 63h43l-84 -90h-40zM82 624v-624h-42v700h60l210 -591v591h42v-700h-51z" />
    <glyph glyph-name="ncaron" unicode="&#x148;" horiz-adv-x="391" 
d="M93 835h43l61 -63l61 63h43l-84 -90h-40zM82 624v-624h-42v700h60l210 -591v591h42v-700h-51z" />
    <glyph glyph-name="napostrophe" unicode="&#x149;" horiz-adv-x="465" 
d="M13 536l21 76h-16v88h44v-84l-28 -80h-21zM155 624v-624h-42v700h61l210 -591v591h41v-700h-50z" />
    <glyph glyph-name="Omacron" unicode="&#x14c;" horiz-adv-x="381" 
d="M98 794h187v-34h-187v34zM190 706q78 0 116.5 -48t38.5 -129v-358q0 -81 -38.5 -129t-116.5 -48q-76 0 -114.5 48.5t-38.5 128.5v358q0 80 38.5 128.5t114.5 48.5zM190 664q-55 0 -81 -35.5t-26 -96.5v-364q0 -61 26 -96.5t81 -35.5q56 0 82.5 35.5t26.5 96.5v364
q0 61 -26.5 96.5t-82.5 35.5z" />
    <glyph glyph-name="omacron" unicode="&#x14d;" horiz-adv-x="381" 
d="M98 794h187v-34h-187v34zM190 706q78 0 116.5 -48t38.5 -129v-358q0 -81 -38.5 -129t-116.5 -48q-76 0 -114.5 48.5t-38.5 128.5v358q0 80 38.5 128.5t114.5 48.5zM190 664q-55 0 -81 -35.5t-26 -96.5v-364q0 -61 26 -96.5t81 -35.5q56 0 82.5 35.5t26.5 96.5v364
q0 61 -26.5 96.5t-82.5 35.5z" />
    <glyph glyph-name="Obreve" unicode="&#x14e;" horiz-adv-x="381" 
d="M258 834h30q-1 -41 -28 -64.5t-70 -23.5q-42 0 -68.5 23.5t-27.5 64.5h29q3 -57 67 -57t68 57zM190 706q78 0 116.5 -48t38.5 -129v-358q0 -81 -38.5 -129t-116.5 -48q-76 0 -114.5 48.5t-38.5 128.5v358q0 80 38.5 128.5t114.5 48.5zM190 664q-55 0 -81 -35.5t-26 -96.5
v-364q0 -61 26 -96.5t81 -35.5q56 0 82.5 35.5t26.5 96.5v364q0 61 -26.5 96.5t-82.5 35.5z" />
    <glyph glyph-name="obreve" unicode="&#x14f;" horiz-adv-x="381" 
d="M258 834h30q-1 -41 -28 -64.5t-70 -23.5q-42 0 -68.5 23.5t-27.5 64.5h29q3 -57 67 -57t68 57zM190 706q78 0 116.5 -48t38.5 -129v-358q0 -81 -38.5 -129t-116.5 -48q-76 0 -114.5 48.5t-38.5 128.5v358q0 80 38.5 128.5t114.5 48.5zM190 664q-55 0 -81 -35.5t-26 -96.5
v-364q0 -61 26 -96.5t81 -35.5q56 0 82.5 35.5t26.5 96.5v364q0 61 -26.5 96.5t-82.5 35.5z" />
    <glyph glyph-name="Ohungarumlaut" unicode="&#x150;" horiz-adv-x="381" 
d="M183 842h45l-77 -95h-33zM268 842h45l-78 -95h-32zM190 706q78 0 116.5 -48t38.5 -129v-358q0 -81 -38.5 -129t-116.5 -48q-76 0 -114.5 48.5t-38.5 128.5v358q0 80 38.5 128.5t114.5 48.5zM190 664q-55 0 -81 -35.5t-26 -96.5v-364q0 -61 26 -96.5t81 -35.5
q56 0 82.5 35.5t26.5 96.5v364q0 61 -26.5 96.5t-82.5 35.5z" />
    <glyph glyph-name="ohungarumlaut" unicode="&#x151;" horiz-adv-x="381" 
d="M183 842h45l-77 -95h-33zM268 842h45l-78 -95h-32zM190 706q78 0 116.5 -48t38.5 -129v-358q0 -81 -38.5 -129t-116.5 -48q-76 0 -114.5 48.5t-38.5 128.5v358q0 80 38.5 128.5t114.5 48.5zM190 664q-55 0 -81 -35.5t-26 -96.5v-364q0 -61 26 -96.5t81 -35.5
q56 0 82.5 35.5t26.5 96.5v364q0 61 -26.5 96.5t-82.5 35.5z" />
    <glyph glyph-name="OE" unicode="&#x152;" horiz-adv-x="568" 
d="M327 376h170v-42h-170v-292h205v-42h-350q-75 0 -110.5 48t-35.5 126v352q0 78 35.5 126t110.5 48h350v-42h-205v-282zM281 658h-98q-52 0 -76.5 -36t-24.5 -94v-356q0 -58 24.5 -94t76.5 -36h98v616z" />
    <glyph glyph-name="oe" unicode="&#x153;" horiz-adv-x="568" 
d="M327 376h170v-42h-170v-292h205v-42h-350q-75 0 -110.5 48t-35.5 126v352q0 78 35.5 126t110.5 48h350v-42h-205v-282zM281 658h-98q-52 0 -76.5 -36t-24.5 -94v-356q0 -58 24.5 -94t76.5 -36h98v616z" />
    <glyph glyph-name="Racute" unicode="&#x154;" horiz-adv-x="386" 
d="M213 842h48l-84 -95h-35zM40 700h146q150 0 150 -158v-61q0 -122 -101 -145q101 -22 101 -143v-109q0 -58 17 -84h-48q-15 26 -15 84v110q0 66 -33 92.5t-98 26.5h-73v-313h-46v700zM86 355h74q66 0 98 25t32 92v66q0 120 -105 120h-99v-303z" />
    <glyph glyph-name="racute" unicode="&#x155;" horiz-adv-x="386" 
d="M213 842h48l-84 -95h-35zM40 700h146q150 0 150 -158v-61q0 -122 -101 -145q101 -22 101 -143v-109q0 -58 17 -84h-48q-15 26 -15 84v110q0 66 -33 92.5t-98 26.5h-73v-313h-46v700zM86 355h74q66 0 98 25t32 92v66q0 120 -105 120h-99v-303z" />
    <glyph glyph-name="uni0156" unicode="&#x156;" horiz-adv-x="386" 
d="M40 700h146q150 0 150 -158v-61q0 -122 -101 -145q101 -22 101 -143v-109q0 -58 17 -84h-48q-15 26 -15 84v110q0 66 -33 92.5t-98 26.5h-73v-313h-46v700zM86 355h74q66 0 98 25t32 92v66q0 120 -105 120h-99v-303zM164 -175l19 59h-13v83h39v-79l-27 -63h-18z" />
    <glyph glyph-name="uni0157" unicode="&#x157;" horiz-adv-x="386" 
d="M40 700h146q150 0 150 -158v-61q0 -122 -101 -145q101 -22 101 -143v-109q0 -58 17 -84h-48q-15 26 -15 84v110q0 66 -33 92.5t-98 26.5h-73v-313h-46v700zM86 355h74q66 0 98 25t32 92v66q0 120 -105 120h-99v-303zM165 -176l20 59h-14v83h40v-79l-27 -63h-19z" />
    <glyph glyph-name="Rcaron" unicode="&#x158;" horiz-adv-x="386" 
d="M73 836h43l61 -64l61 64h44l-85 -90h-40zM40 700h146q150 0 150 -158v-61q0 -122 -101 -145q101 -22 101 -143v-109q0 -58 17 -84h-48q-15 26 -15 84v110q0 66 -33 92.5t-98 26.5h-73v-313h-46v700zM86 355h74q66 0 98 25t32 92v66q0 120 -105 120h-99v-303z" />
    <glyph glyph-name="rcaron" unicode="&#x159;" horiz-adv-x="386" 
d="M73 836h43l61 -64l61 64h44l-85 -90h-40zM40 700h146q150 0 150 -158v-61q0 -122 -101 -145q101 -22 101 -143v-109q0 -58 17 -84h-48q-15 26 -15 84v110q0 66 -33 92.5t-98 26.5h-73v-313h-46v700zM86 355h74q66 0 98 25t32 92v66q0 120 -105 120h-99v-303z" />
    <glyph glyph-name="Sacute" unicode="&#x15a;" horiz-adv-x="370" 
d="M225 842h48l-84 -95h-35zM186 706q76 0 112.5 -47.5t36.5 -127.5v-15h-44v18q0 130 -104 130t-104 -129q0 -34 14 -63t36.5 -50.5t49 -41l53.5 -40t49.5 -43.5t36.5 -56t14 -72q0 -80 -37 -127.5t-114 -47.5t-114 47.5t-37 127.5v36h44v-39q0 -129 106 -129t106 129
q0 34 -14 62.5t-36.5 49.5t-49 41l-53.5 40.5t-49.5 43.5t-36.5 56t-14 73q0 81 37 127t112 47z" />
    <glyph glyph-name="sacute" unicode="&#x15b;" horiz-adv-x="370" 
d="M225 842h48l-84 -95h-35zM186 706q76 0 112.5 -47.5t36.5 -127.5v-15h-44v18q0 130 -104 130t-104 -129q0 -34 14 -63t36.5 -50.5t49 -41l53.5 -40t49.5 -43.5t36.5 -56t14 -72q0 -80 -37 -127.5t-114 -47.5t-114 47.5t-37 127.5v36h44v-39q0 -129 106 -129t106 129
q0 34 -14 62.5t-36.5 49.5t-49 41l-53.5 40.5t-49.5 43.5t-36.5 56t-14 73q0 81 37 127t112 47z" />
    <glyph glyph-name="Scircumflex" unicode="&#x15c;" horiz-adv-x="370" 
d="M190 809l-61 -64h-43l84 90h40l84 -90h-43zM186 706q76 0 112.5 -47.5t36.5 -127.5v-15h-44v18q0 130 -104 130t-104 -129q0 -34 14 -63t36.5 -50.5t49 -41l53.5 -40t49.5 -43.5t36.5 -56t14 -72q0 -80 -37 -127.5t-114 -47.5t-114 47.5t-37 127.5v36h44v-39
q0 -129 106 -129t106 129q0 34 -14 62.5t-36.5 49.5t-49 41l-53.5 40.5t-49.5 43.5t-36.5 56t-14 73q0 81 37 127t112 47z" />
    <glyph glyph-name="scircumflex" unicode="&#x15d;" horiz-adv-x="370" 
d="M190 809l-61 -64h-43l84 90h40l84 -90h-43zM186 706q76 0 112.5 -47.5t36.5 -127.5v-15h-44v18q0 130 -104 130t-104 -129q0 -34 14 -63t36.5 -50.5t49 -41l53.5 -40t49.5 -43.5t36.5 -56t14 -72q0 -80 -37 -127.5t-114 -47.5t-114 47.5t-37 127.5v36h44v-39
q0 -129 106 -129t106 129q0 34 -14 62.5t-36.5 49.5t-49 41l-53.5 40.5t-49.5 43.5t-36.5 56t-14 73q0 81 37 127t112 47z" />
    <glyph glyph-name="Scedilla" unicode="&#x15e;" horiz-adv-x="370" 
d="M197 -6v-28q35 -1 55 -15.5t20 -40.5q0 -31 -23.5 -48t-65.5 -16q-41 0 -64.5 16.5t-23.5 46.5v6h32v-5q0 -17 15 -27.5t41 -11.5q57 0 57 40q0 37 -60 37h-7v47q-71 3 -105 50t-34 124v36h44v-39q0 -129 106 -129t106 129q0 34 -14 62.5t-36.5 49.5t-49 41l-53.5 40.5
t-49.5 43.5t-36.5 56t-14 73q0 81 37 127t112 47q76 0 112.5 -47.5t36.5 -127.5v-15h-44v18q0 130 -104 130t-104 -129q0 -34 14 -63t36.5 -50.5t49 -41l53.5 -40t49.5 -43.5t36.5 -56t14 -72q0 -77 -34 -124t-105 -51z" />
    <glyph glyph-name="scedilla" unicode="&#x15f;" horiz-adv-x="370" 
d="M197 -6v-28q35 -1 55 -15.5t20 -40.5q0 -31 -23.5 -48t-65.5 -16q-41 0 -64.5 16.5t-23.5 46.5v6h32v-5q0 -17 15 -27.5t41 -11.5q57 0 57 40q0 37 -60 37h-7v47q-71 3 -105 50t-34 124v36h44v-39q0 -129 106 -129t106 129q0 34 -14 62.5t-36.5 49.5t-49 41l-53.5 40.5
t-49.5 43.5t-36.5 56t-14 73q0 81 37 127t112 47q76 0 112.5 -47.5t36.5 -127.5v-15h-44v18q0 130 -104 130t-104 -129q0 -34 14 -63t36.5 -50.5t49 -41l53.5 -40t49.5 -43.5t36.5 -56t14 -72q0 -77 -34 -124t-105 -51z" />
    <glyph glyph-name="Scaron" unicode="&#x160;" horiz-adv-x="370" 
d="M84 836h42l62 -64l61 64h43l-84 -90h-41zM186 706q76 0 112.5 -47.5t36.5 -127.5v-15h-44v18q0 130 -104 130t-104 -129q0 -34 14 -63t36.5 -50.5t49 -41l53.5 -40t49.5 -43.5t36.5 -56t14 -72q0 -80 -37 -127.5t-114 -47.5t-114 47.5t-37 127.5v36h44v-39
q0 -129 106 -129t106 129q0 34 -14 62.5t-36.5 49.5t-49 41l-53.5 40.5t-49.5 43.5t-36.5 56t-14 73q0 81 37 127t112 47z" />
    <glyph glyph-name="scaron" unicode="&#x161;" horiz-adv-x="370" 
d="M83 836h43l61 -64l61 64h44l-85 -90h-40zM186 706q76 0 112.5 -47.5t36.5 -127.5v-15h-44v18q0 130 -104 130t-104 -129q0 -34 14 -63t36.5 -50.5t49 -41l53.5 -40t49.5 -43.5t36.5 -56t14 -72q0 -80 -37 -127.5t-114 -47.5t-114 47.5t-37 127.5v36h44v-39
q0 -129 106 -129t106 129q0 34 -14 62.5t-36.5 49.5t-49 41l-53.5 40.5t-49.5 43.5t-36.5 56t-14 73q0 81 37 127t112 47z" />
    <glyph glyph-name="uni0162" unicode="&#x162;" horiz-adv-x="388" 
d="M217 0h-9v-34q68 -2 68 -58q0 -34 -25 -51t-60 -17q-33 0 -58.5 16.5t-25.5 47.5v6h28v-6q0 -19 17 -28t39 -10q22 0 39 10t17 31q0 39 -60 39h-7v54h-9v658h-143v42h332v-42h-143v-658z" />
    <glyph glyph-name="uni0163" unicode="&#x163;" horiz-adv-x="388" 
d="M217 0h-9v-36q69 -2 69 -56q0 -34 -26 -51t-61 -17q-33 0 -58 16.5t-25 47.5v6h28v-6q0 -19 17 -28t39 -10q22 0 39 10t17 31q0 39 -61 39h-7v54h-8v658h-143v42h332v-42h-143v-658z" />
    <glyph glyph-name="Tcaron" unicode="&#x164;" horiz-adv-x="388" 
d="M90 831h42l62 -63l61 63h43l-84 -90h-41zM217 0h-46v658h-143v42h332v-42h-143v-658z" />
    <glyph glyph-name="tcaron" unicode="&#x165;" horiz-adv-x="388" 
d="M90 831h42l62 -63l61 63h43l-84 -90h-41zM217 0h-46v658h-143v42h332v-42h-143v-658z" />
    <glyph glyph-name="Tbar" unicode="&#x166;" horiz-adv-x="388" 
d="M217 465h76v-35h-76v-430h-46v430h-76v35h76v193h-143v42h332v-42h-143v-193z" />
    <glyph glyph-name="tbar" unicode="&#x167;" horiz-adv-x="388" 
d="M217 465h76v-35h-76v-430h-46v430h-76v35h76v193h-143v42h332v-42h-143v-193z" />
    <glyph glyph-name="Utilde" unicode="&#x168;" 
d="M273 816l25 -16q-19 -47 -58 -48q-19 -1 -48.5 16.5t-44.5 17.5q-27 0 -42 -31l-25 17q22 47 63 47q20 1 49.5 -16t43.5 -17q24 1 37 30zM337 700v-529q0 -80 -36.5 -128.5t-112.5 -48.5t-113 48.5t-37 128.5v529h46v-531q0 -133 105 -133t105 133v531h43z" />
    <glyph glyph-name="utilde" unicode="&#x169;" 
d="M273 816l25 -16q-19 -47 -58 -48q-19 -1 -48.5 16.5t-44.5 17.5q-27 0 -42 -31l-25 17q22 47 63 47q20 1 49.5 -16t43.5 -17q24 1 37 30zM337 700v-529q0 -80 -36.5 -128.5t-112.5 -48.5t-113 48.5t-37 128.5v529h46v-531q0 -133 105 -133t105 133v531h43z" />
    <glyph glyph-name="Umacron" unicode="&#x16a;" 
d="M100 793h182v-33h-182v33zM337 700v-529q0 -80 -36.5 -128.5t-112.5 -48.5t-113 48.5t-37 128.5v529h46v-531q0 -133 105 -133t105 133v531h43z" />
    <glyph glyph-name="umacron" unicode="&#x16b;" 
d="M100 793h182v-33h-182v33zM337 700v-529q0 -80 -36.5 -128.5t-112.5 -48.5t-113 48.5t-37 128.5v529h46v-531q0 -133 105 -133t105 133v531h43z" />
    <glyph glyph-name="Ubreve" unicode="&#x16c;" 
d="M257 828h29q-1 -41 -27.5 -65t-69.5 -24q-42 0 -69 24t-28 65h30q1 -29 20 -43.5t47 -14.5t47 14.5t21 43.5zM337 700v-529q0 -80 -36.5 -128.5t-112.5 -48.5t-113 48.5t-37 128.5v529h46v-531q0 -133 105 -133t105 133v531h43z" />
    <glyph glyph-name="ubreve" unicode="&#x16d;" 
d="M257 828h29q-1 -41 -27.5 -65t-69.5 -24q-42 0 -69 24t-28 65h30q1 -29 20 -43.5t47 -14.5t47 14.5t21 43.5zM337 700v-529q0 -80 -36.5 -128.5t-112.5 -48.5t-113 48.5t-37 128.5v529h46v-531q0 -133 105 -133t105 133v531h43z" />
    <glyph glyph-name="Uring" unicode="&#x16e;" 
d="M192 868q29 0 48.5 -19t19.5 -47t-19.5 -47t-48.5 -19q-28 0 -47.5 19t-19.5 47t19.5 47t47.5 19zM192 844q-18 0 -30 -11.5t-12 -30.5q0 -18 12 -30t30 -12t30.5 12t12.5 30t-12.5 30t-30.5 12zM337 700v-529q0 -80 -36.5 -128.5t-112.5 -48.5t-113 48.5t-37 128.5v529
h46v-531q0 -133 105 -133t105 133v531h43z" />
    <glyph glyph-name="uring" unicode="&#x16f;" 
d="M192 868q29 0 48.5 -19t19.5 -47t-19.5 -47t-48.5 -19q-28 0 -47.5 19t-19.5 47t19.5 47t47.5 19zM192 844q-18 0 -30 -11.5t-12 -30.5q0 -18 12 -30t30 -12t30.5 12t12.5 30t-12.5 30t-30.5 12zM337 700v-529q0 -80 -36.5 -128.5t-112.5 -48.5t-113 48.5t-37 128.5v529
h46v-531q0 -133 105 -133t105 133v531h43z" />
    <glyph glyph-name="Uhungarumlaut" unicode="&#x170;" 
d="M180 840h45l-77 -95h-33zM265 840h45l-78 -95h-32zM337 700v-529q0 -80 -36.5 -128.5t-112.5 -48.5t-113 48.5t-37 128.5v529h46v-531q0 -133 105 -133t105 133v531h43z" />
    <glyph glyph-name="uhungarumlaut" unicode="&#x171;" 
d="M180 840h45l-77 -95h-33zM265 840h45l-78 -95h-32zM337 700v-529q0 -80 -36.5 -128.5t-112.5 -48.5t-113 48.5t-37 128.5v529h46v-531q0 -133 105 -133t105 133v531h43z" />
    <glyph glyph-name="Uogonek" unicode="&#x172;" 
d="M337 700v-529q0 -133 -86 -168q-19 -15 -32.5 -39.5t-12.5 -43.5q3 -32 40 -32q24 0 44 13v-28q-26 -13 -56 -13q-63 2 -64 51q-1 44 48 85q-18 -2 -30 -2q-76 0 -113 48.5t-37 128.5v529h46v-531q0 -133 105 -133t105 133v531h43z" />
    <glyph glyph-name="uogonek" unicode="&#x173;" 
d="M337 700v-529q0 -133 -86 -168q-19 -15 -32.5 -39.5t-12.5 -43.5q3 -32 40 -32q24 0 44 13v-28q-26 -13 -56 -13q-63 2 -64 51q-1 44 48 85q-18 -2 -30 -2q-76 0 -113 48.5t-37 128.5v529h46v-531q0 -133 105 -133t105 133v531h43z" />
    <glyph glyph-name="Wcircumflex" unicode="&#x174;" horiz-adv-x="603" 
d="M304 807l-61 -64h-43l84 90h40l84 -90h-43zM306 573l-98 -573h-64l-113 700h45l105 -638l102 635h49l98 -633l101 636h41l-112 -700h-60z" />
    <glyph glyph-name="wcircumflex" unicode="&#x175;" horiz-adv-x="603" 
d="M304 807l-61 -64h-43l84 90h40l84 -90h-43zM306 573l-98 -573h-64l-113 700h45l105 -638l102 635h49l98 -633l101 636h41l-112 -700h-60z" />
    <glyph glyph-name="Ycircumflex" unicode="&#x176;" horiz-adv-x="415" 
d="M209 806l-61 -63h-43l84 90h40l84 -90h-43zM184 0v269l-157 431h48l134 -368l134 368h45l-158 -431v-269h-46z" />
    <glyph glyph-name="ycircumflex" unicode="&#x177;" horiz-adv-x="415" 
d="M209 806l-61 -63h-43l84 90h40l84 -90h-43zM184 0v269l-157 431h48l134 -368l134 368h45l-158 -431v-269h-46z" />
    <glyph glyph-name="Ydieresis" unicode="&#x178;" horiz-adv-x="415" 
d="M139 825h41v-84h-41v84zM236 825h41v-84h-41v84zM184 0v269l-157 431h48l134 -368l134 368h45l-158 -431v-269h-46z" />
    <glyph glyph-name="Zacute" unicode="&#x179;" horiz-adv-x="388" 
d="M242 842h48l-84 -95h-35zM349 42v-42h-315v42l271 616h-258v42h306v-43l-271 -615h267z" />
    <glyph glyph-name="zacute" unicode="&#x17a;" horiz-adv-x="388" 
d="M242 842h48l-84 -95h-35zM349 42v-42h-315v42l271 616h-258v42h306v-43l-271 -615h267z" />
    <glyph glyph-name="Zdotaccent" unicode="&#x17b;" horiz-adv-x="388" 
d="M187 830h41v-84h-41v84zM349 42v-42h-315v42l271 616h-258v42h306v-43l-271 -615h267z" />
    <glyph glyph-name="zdotaccent" unicode="&#x17c;" horiz-adv-x="388" 
d="M187 830h41v-84h-41v84zM349 42v-42h-315v42l271 616h-258v42h306v-43l-271 -615h267z" />
    <glyph glyph-name="Zcaron" unicode="&#x17d;" horiz-adv-x="388" 
d="M97 835h42l62 -63l61 63h43l-84 -90h-40zM349 42v-42h-315v42l271 616h-258v42h306v-43l-271 -615h267z" />
    <glyph glyph-name="zcaron" unicode="&#x17e;" horiz-adv-x="388" 
d="M97 835h42l62 -63l61 63h43l-84 -90h-40zM349 42v-42h-315v42l271 616h-258v42h306v-43l-271 -615h267z" />
    <glyph glyph-name="AEacute" unicode="&#x1fc;" horiz-adv-x="589" 
d="M364 840h48l-84 -95h-35zM349 376h169v-42h-169v-292h204v-42h-250v157h-175l-57 -157h-44l249 700h277v-42h-204v-282zM303 643l-163 -445h163v445z" />
    <glyph glyph-name="aeacute" unicode="&#x1fd;" horiz-adv-x="589" 
d="M364 840h48l-84 -95h-35zM349 376h169v-42h-169v-292h204v-42h-250v157h-175l-57 -157h-44l249 700h277v-42h-204v-282zM303 643l-163 -445h163v445z" />
    <glyph glyph-name="Oslashacute" unicode="&#x1fe;" horiz-adv-x="381" 
d="M159 747l71 95h48l-84 -95h-35zM339 707l-23 -62q29 -43 29 -116v-358q0 -81 -38.5 -129t-116.5 -48q-69 0 -107 40l-20 -51l-23 8l25 66q-28 44 -28 114v358q0 80 38.5 128.5t114.5 48.5q68 0 108 -40l19 49zM83 532v-364q0 -24 5 -51l192 501q-28 46 -90 46
q-55 0 -81 -35.5t-26 -96.5zM299 168v364q0 28 -6 54l-192 -503q28 -47 89 -47q56 0 82.5 35.5t26.5 96.5z" />
    <glyph glyph-name="oslashacute" unicode="&#x1ff;" horiz-adv-x="381" 
d="M159 747l71 95h48l-84 -95h-35zM339 707l-23 -62q29 -43 29 -116v-358q0 -81 -38.5 -129t-116.5 -48q-69 0 -107 40l-20 -51l-23 8l25 66q-28 44 -28 114v358q0 80 38.5 128.5t114.5 48.5q68 0 108 -40l19 49zM83 532v-364q0 -24 5 -51l192 501q-28 46 -90 46
q-55 0 -81 -35.5t-26 -96.5zM299 168v364q0 28 -6 54l-192 -503q28 -47 89 -47q56 0 82.5 35.5t26.5 96.5z" />
    <glyph glyph-name="uni0218" unicode="&#x218;" horiz-adv-x="370" 
d="M186 706q76 0 112.5 -47.5t36.5 -127.5v-15h-44v18q0 130 -104 130t-104 -129q0 -34 14 -63t36.5 -50.5t49 -41l53.5 -40t49.5 -43.5t36.5 -56t14 -72q0 -80 -37 -127.5t-114 -47.5t-114 47.5t-37 127.5v36h44v-39q0 -129 106 -129t106 129q0 34 -14 62.5t-36.5 49.5
t-49 41l-53.5 40.5t-49.5 43.5t-36.5 56t-14 73q0 81 37 127t112 47zM158 -176l20 59h-14v83h40v-79l-27 -63h-19z" />
    <glyph glyph-name="uni0219" unicode="&#x219;" horiz-adv-x="370" 
d="M186 706q76 0 112.5 -47.5t36.5 -127.5v-15h-44v18q0 130 -104 130t-104 -129q0 -34 14 -63t36.5 -50.5t49 -41l53.5 -40t49.5 -43.5t36.5 -56t14 -72q0 -80 -37 -127.5t-114 -47.5t-114 47.5t-37 127.5v36h44v-39q0 -129 106 -129t106 129q0 34 -14 62.5t-36.5 49.5
t-49 41l-53.5 40.5t-49.5 43.5t-36.5 56t-14 73q0 81 37 127t112 47zM158 -176l20 59h-14v83h40v-79l-27 -63h-19z" />
    <glyph glyph-name="uni021A" unicode="&#x21a;" horiz-adv-x="388" 
d="M217 0h-46v658h-143v42h332v-42h-143v-658zM168 -176l20 59h-14v83h40v-79l-27 -63h-19z" />
    <glyph glyph-name="uni021B" unicode="&#x21b;" horiz-adv-x="388" 
d="M217 0h-46v658h-143v42h332v-42h-143v-658zM168 -176l20 59h-14v83h40v-79l-27 -63h-19z" />
    <glyph glyph-name="uni0237" unicode="&#x237;" horiz-adv-x="253" 
d="M29 0v42q15 -1 41 1q51 4 75 33.5t24 92.5v531h46v-528q0 -88 -36 -128.5t-104 -43.5q-22 -1 -46 0z" />
    <glyph glyph-name="uni02BC" unicode="&#x2bc;" horiz-adv-x="134" 
d="M94 616l-29 -80h-20l20 76h-15v88h44v-84z" />
    <glyph glyph-name="circumflex" unicode="&#x2c6;" horiz-adv-x="250" 
d="M125 821l-61 -63h-43l84 90h40l84 -90h-43z" />
    <glyph glyph-name="caron" unicode="&#x2c7;" horiz-adv-x="250" 
d="M21 848h43l61 -64l61 64h43l-84 -90h-40z" />
    <glyph glyph-name="breve" unicode="&#x2d8;" horiz-adv-x="254" 
d="M194 821h30q-1 -41 -28 -64.5t-69 -23.5q-43 0 -69.5 23.5t-27.5 64.5h30q1 -28 20 -42.5t47 -14.5t47 14.5t20 42.5z" />
    <glyph glyph-name="dotaccent" unicode="&#x2d9;" horiz-adv-x="148" 
d="M53 833h41v-84h-41v84z" />
    <glyph glyph-name="ring" unicode="&#x2da;" horiz-adv-x="218" 
d="M109 880q28 0 47.5 -19t19.5 -47t-19.5 -47.5t-47.5 -19.5t-47.5 19.5t-19.5 47.5t19.5 47t47.5 19zM109 856q-18 0 -30.5 -12t-12.5 -30t12.5 -30t30.5 -12t30.5 12t12.5 30t-12.5 30t-30.5 12z" />
    <glyph glyph-name="ogonek" unicode="&#x2db;" horiz-adv-x="205" 
d="M99 1h25q-20 -15 -33 -38.5t-12 -42.5q1 -16 12 -24t28 -8q25 0 43 13v-28q-25 -13 -56 -13q-62 2 -63 51q-1 23 15 48t41 42z" />
    <glyph glyph-name="tilde" unicode="&#x2dc;" horiz-adv-x="262" 
d="M215 815l25 -16q-20 -47 -58 -48q-19 -1 -48.5 16t-44.5 17q-26 0 -42 -30l-25 17q22 47 63 47q20 1 49.5 -16t43.5 -17q21 0 37 30z" />
    <glyph glyph-name="hungarumlaut" unicode="&#x2dd;" horiz-adv-x="235" 
d="M81 848h45l-77 -95h-32zM166 848h45l-77 -95h-32z" />
    <glyph glyph-name="uni0401" unicode="&#x401;" horiz-adv-x="351" 
d="M109 830h41v-85h-41v85zM206 830h41v-85h-41v85zM86 376h191v-42h-191v-292h230v-42h-276v700h276v-42h-230v-282z" />
    <glyph glyph-name="uni0410" unicode="&#x410;" horiz-adv-x="436" 
d="M325 155h-218l-35 -155h-42l153 701h67l156 -701h-46zM215 648l-101 -453h204z" />
    <glyph glyph-name="uni0411" unicode="&#x411;" horiz-adv-x="387" 
d="M86 402h100q83 0 123 -37t40 -119v-79q0 -167 -155 -167h-154v700h283v-42h-237v-256zM86 42h108q109 0 109 122v85q0 62 -28 86t-89 24h-100v-317z" />
    <glyph glyph-name="uni0412" unicode="&#x412;" horiz-adv-x="378" 
d="M40 700h147q77 0 110 -37t33 -112v-40q0 -60 -20.5 -93.5t-71.5 -44.5q105 -21 105 -150v-61q0 -162 -153 -162h-150v700zM86 391h78q64 0 92 23.5t28 87.5v45q0 57 -22 84t-76 27h-100v-267zM86 42h104q107 0 107 121v63q0 67 -30 95t-94 28h-87v-307z" />
    <glyph glyph-name="uni0413" unicode="&#x413;" horiz-adv-x="346" 
d="M309 658h-223v-658h-46v700h269v-42z" />
    <glyph glyph-name="uni0414" unicode="&#x414;" horiz-adv-x="489" 
d="M456 -97h-46v97h-334v-97h-45v139h48q31 33 35 112l28 546h256v-658h58v-139zM185 658l-26 -504q-5 -82 -33 -112h225v616h-166z" />
    <glyph glyph-name="uni0415" unicode="&#x415;" horiz-adv-x="351" 
d="M86 376h191v-42h-191v-292h230v-42h-276v700h276v-42h-230v-282z" />
    <glyph glyph-name="uni0416" unicode="&#x416;" horiz-adv-x="623" 
d="M547 0l-166 350l-47 -80v-270h-46v271l-46 79l-166 -350h-48l183 393l-175 307h47l205 -360v360h46v-360l205 360h48l-174 -306l181 -394h-47z" />
    <glyph glyph-name="uni0417" unicode="&#x417;" horiz-adv-x="378" 
d="M189 706q77 0 114 -48t37 -129v-18q0 -52 -25 -90.5t-70 -53.5q47 -13 71 -51t24 -91v-54q0 -81 -37 -129t-114 -48t-114 48t-37 129v58h44v-61q0 -60 25.5 -96t80.5 -36q106 0 106 136v54q0 54 -29 86t-79 32h-39v42h42q46 0 75.5 33.5t29.5 82.5v26q0 136 -106 136
q-55 0 -81 -35.5t-26 -96.5v-38h-42v36q0 81 36.5 128.5t113.5 47.5z" />
    <glyph glyph-name="uni0418" unicode="&#x418;" horiz-adv-x="391" 
d="M310 619l-105 -290l-115 -329h-50v700h42v-599l102 286l113 313h55v-700h-42v619z" />
    <glyph glyph-name="uni0419" unicode="&#x419;" horiz-adv-x="392" 
d="M271 832h31q-1 -39 -29 -62t-72 -23t-71.5 22.5t-28.5 62.5h32q1 -28 20 -41.5t48 -13.5q67 0 70 55zM310 619l-100 -278l-120 -341h-50v700h42v-599l91 255l124 344h55v-700h-42v619z" />
    <glyph glyph-name="uni041A" unicode="&#x41a;" horiz-adv-x="404" 
d="M327 0l-193 329l-48 -76v-253h-46v700h46v-370l228 370h48l-200 -326l213 -374h-48z" />
    <glyph glyph-name="uni041B" unicode="&#x41b;" horiz-adv-x="438" 
d="M350 658h-171l-18 -487q-2 -40 -7 -67.5t-17.5 -53t-37 -38t-61.5 -13.5h-9v42q28 0 46 9.5t26 30t10.5 39t3.5 50.5l21 530h261v-700h-47v658z" />
    <glyph glyph-name="uni041C" unicode="&#x41c;" horiz-adv-x="505" 
d="M421 622l-146 -621h-46l-148 619v-620h-41v700h66l147 -619l146 619h66v-700h-44v622z" />
    <glyph glyph-name="uni041D" unicode="&#x41d;" horiz-adv-x="391" 
d="M304 329h-218v-329h-46v700h46v-329h218v329h47v-700h-47v329z" />
    <glyph glyph-name="uni041E" unicode="&#x41e;" horiz-adv-x="381" 
d="M37 171v358q0 80 38.5 128.5t114.5 48.5q78 0 116.5 -48t38.5 -129v-358q0 -81 -38.5 -129t-116.5 -48q-76 0 -114.5 48.5t-38.5 128.5zM83 532v-364q0 -61 26 -96.5t81 -35.5q56 0 82.5 35.5t26.5 96.5v364q0 61 -26.5 96.5t-82.5 35.5q-55 0 -81 -35.5t-26 -96.5z" />
    <glyph glyph-name="uni041F" unicode="&#x41f;" horiz-adv-x="391" 
d="M304 658h-218v-658h-46v700h311v-700h-47v658z" />
    <glyph glyph-name="uni0420" unicode="&#x420;" horiz-adv-x="364" 
d="M40 700h145q150 0 150 -170v-76q0 -166 -162 -166h-87v-288h-46v700zM86 330h87q61 0 88.5 28.5t27.5 92.5v82q0 125 -104 125h-99v-328z" />
    <glyph glyph-name="uni0421" unicode="&#x421;" horiz-adv-x="374" 
d="M188 706q77 0 114 -48.5t37 -128.5v-58h-44v61q0 60 -25.5 96t-80.5 36t-80.5 -36t-25.5 -96v-364q0 -131 106 -131t106 131v83h44v-80q0 -80 -37 -128.5t-114 -48.5t-114 48.5t-37 128.5v358q0 80 37 128.5t114 48.5z" />
    <glyph glyph-name="uni0422" unicode="&#x422;" horiz-adv-x="388" 
d="M217 0h-46v658h-143v42h332v-42h-143v-658z" />
    <glyph glyph-name="uni0423" unicode="&#x423;" horiz-adv-x="426" 
d="M398 700l-181 -570q-19 -70 -51 -101.5t-103 -28.5v41q46 -1 68 18.5t36 63.5l29 85l-168 492h47l82 -247l61 -187l56 188l76 246h48z" />
    <glyph glyph-name="uni0424" unicode="&#x424;" horiz-adv-x="556" 
d="M300 619h57q161 0 161 -176v-191q0 -176 -161 -176h-57v-76h-45v76h-57q-161 0 -161 176v191q0 176 161 176h57v81h45v-81zM255 578h-57q-116 0 -116 -132v-197q0 -132 116 -132h57v461zM300 117h57q116 0 116 132v197q0 132 -116 132h-57v-461z" />
    <glyph glyph-name="uni0425" unicode="&#x425;" horiz-adv-x="440" 
d="M360 0l-142 326l-142 -326h-45l158 363l-147 337h48l132 -301l133 301h44l-147 -337l157 -363h-49z" />
    <glyph glyph-name="uni0426" unicode="&#x426;" horiz-adv-x="455" 
d="M421 -94h-45v94h-323v700h45v-658h218v658h47v-658h58v-136z" />
    <glyph glyph-name="uni0427" unicode="&#x427;" horiz-adv-x="387" 
d="M301 0v336q-40 -69 -123 -69q-71 0 -106 47.5t-35 123.5v262h46v-259q0 -58 27.5 -95t80.5 -37q87 0 110 91v300h46v-700h-46z" />
    <glyph glyph-name="uni0428" unicode="&#x428;" horiz-adv-x="564" 
d="M40 700h46v-658h173v658h46v-658h173v658h46v-700h-484v700z" />
    <glyph glyph-name="uni0429" unicode="&#x429;" horiz-adv-x="615" 
d="M582 -94h-45v94h-497v700h46v-658h172v658h46v-658h174l-1 658h46v-658h59v-136z" />
    <glyph glyph-name="uni042A" unicode="&#x42a;" horiz-adv-x="435" 
d="M151 412h87q162 0 162 -166v-76q0 -170 -150 -170h-145v658h-95v42h141v-288zM151 42h99q104 0 104 125v82q0 63 -28 92t-88 29h-87v-328z" />
    <glyph glyph-name="uni042B" unicode="&#x42b;" horiz-adv-x="487" 
d="M86 412h86q83 0 123 -41t40 -125v-76q0 -170 -151 -170h-144v700h46v-288zM401 700h46v-700h-46v700zM86 42h98q105 0 105 125v82q0 64 -28 92.5t-89 28.5h-86v-328z" />
    <glyph glyph-name="uni042C" unicode="&#x42c;" horiz-adv-x="370" 
d="M86 412h86q83 0 123 -41t40 -125v-76q0 -170 -151 -170h-144v700h46v-288zM86 42h98q105 0 105 125v82q0 64 -28 92.5t-89 28.5h-86v-328z" />
    <glyph glyph-name="uni042D" unicode="&#x42d;" horiz-adv-x="374" 
d="M186 706q76 0 113.5 -48.5t37.5 -128.5v-358q0 -80 -37.5 -128.5t-113.5 -48.5q-77 0 -114 48.5t-37 128.5v68h44v-71q0 -131 105 -131q107 0 107 131v173h-143v42h143v149q0 132 -107 132q-54 0 -79.5 -36t-25.5 -96v-47h-43v44q0 81 36.5 129t113.5 48z" />
    <glyph glyph-name="uni042E" unicode="&#x42e;" horiz-adv-x="552" 
d="M361 706q77 0 115.5 -48t38.5 -129v-358q0 -81 -38.5 -129t-115.5 -48q-78 0 -116 48t-38 129v158h-121v-329h-46v700h46v-329h121v158q0 81 38 129t116 48zM361 664q-108 0 -108 -132v-364q0 -132 108 -132q55 0 81.5 35.5t26.5 96.5v364q0 61 -26.5 96.5t-81.5 35.5z
" />
    <glyph glyph-name="uni042F" unicode="&#x42f;" horiz-adv-x="386" 
d="M300 313h-73q-65 0 -98 -26.5t-33 -92.5v-110q0 -58 -15 -84h-48q17 26 17 84v109q0 121 101 143q-101 23 -101 145v61q0 158 150 158h146v-700h-46v313zM300 658h-99q-105 0 -105 -120v-66q0 -67 32 -92t98 -25h74v303z" />
    <glyph glyph-name="uni0430" unicode="&#x430;" horiz-adv-x="436" 
d="M325 155h-218l-35 -155h-42l153 701h67l156 -701h-46zM215 648l-101 -453h204z" />
    <glyph glyph-name="uni0431" unicode="&#x431;" horiz-adv-x="387" 
d="M86 402h100q83 0 123 -37t40 -119v-79q0 -167 -155 -167h-154v700h283v-42h-237v-256zM86 42h108q109 0 109 122v85q0 62 -28 86t-89 24h-100v-317z" />
    <glyph glyph-name="uni0432" unicode="&#x432;" horiz-adv-x="378" 
d="M40 700h147q77 0 110 -37t33 -112v-40q0 -60 -20.5 -93.5t-71.5 -44.5q105 -21 105 -150v-61q0 -162 -153 -162h-150v700zM86 391h78q64 0 92 23.5t28 87.5v45q0 57 -22 84t-76 27h-100v-267zM86 42h104q107 0 107 121v63q0 67 -30 95t-94 28h-87v-307z" />
    <glyph glyph-name="uni0433" unicode="&#x433;" horiz-adv-x="346" 
d="M309 658h-223v-658h-46v700h269v-42z" />
    <glyph glyph-name="uni0434" unicode="&#x434;" horiz-adv-x="489" 
d="M456 -97h-46v97h-334v-97h-45v139h48q31 33 35 112l28 546h256v-658h58v-139zM185 658l-26 -504q-5 -82 -33 -112h225v616h-166z" />
    <glyph glyph-name="uni0435" unicode="&#x435;" horiz-adv-x="351" 
d="M86 376h191v-42h-191v-292h230v-42h-276v700h276v-42h-230v-282z" />
    <glyph glyph-name="uni0436" unicode="&#x436;" horiz-adv-x="623" 
d="M547 0l-166 350l-47 -80v-270h-46v271l-46 79l-166 -350h-48l183 393l-175 307h47l205 -360v360h46v-360l205 360h48l-174 -306l181 -394h-47z" />
    <glyph glyph-name="uni0437" unicode="&#x437;" horiz-adv-x="378" 
d="M189 706q77 0 114 -48t37 -129v-18q0 -52 -25 -90.5t-70 -53.5q47 -13 71 -51t24 -91v-54q0 -81 -37 -129t-114 -48t-114 48t-37 129v58h44v-61q0 -60 25.5 -96t80.5 -36q106 0 106 136v54q0 54 -29 86t-79 32h-39v42h42q46 0 75.5 33.5t29.5 82.5v26q0 136 -106 136
q-55 0 -81 -35.5t-26 -96.5v-38h-42v36q0 81 36.5 128.5t113.5 47.5z" />
    <glyph glyph-name="uni0438" unicode="&#x438;" horiz-adv-x="391" 
d="M310 619l-106 -294l-114 -325h-50v700h42v-599l81 231l134 368h55v-700h-42v619z" />
    <glyph glyph-name="uni0439" unicode="&#x439;" horiz-adv-x="392" 
d="M271 830h31q-1 -40 -29 -62.5t-72 -22.5t-71.5 22.5t-28.5 62.5h32q1 -28 20 -42t48 -14q67 0 70 56zM310 619l-220 -619h-50v700h42v-599l88 249l127 350h55v-700h-42v619z" />
    <glyph glyph-name="uni043A" unicode="&#x43a;" horiz-adv-x="404" 
d="M327 0l-193 329l-48 -76v-253h-46v700h46v-370l228 370h48l-200 -326l213 -374h-48z" />
    <glyph glyph-name="uni043B" unicode="&#x43b;" horiz-adv-x="438" 
d="M350 658h-171l-18 -487q-2 -40 -7 -67.5t-17.5 -53t-37 -38t-61.5 -13.5h-9v42q28 0 46 9.5t26 30t10.5 39t3.5 50.5l21 530h261v-700h-47v658z" />
    <glyph glyph-name="uni043C" unicode="&#x43c;" horiz-adv-x="505" 
d="M421 622l-146 -621h-46l-148 619v-620h-41v700h66l147 -619l146 619h66v-700h-44v622z" />
    <glyph glyph-name="uni043D" unicode="&#x43d;" horiz-adv-x="391" 
d="M304 329h-218v-329h-46v700h46v-329h218v329h47v-700h-47v329z" />
    <glyph glyph-name="uni043E" unicode="&#x43e;" horiz-adv-x="381" 
d="M37 171v358q0 80 38.5 128.5t114.5 48.5q78 0 116.5 -48t38.5 -129v-358q0 -81 -38.5 -129t-116.5 -48q-76 0 -114.5 48.5t-38.5 128.5zM83 532v-364q0 -61 26 -96.5t81 -35.5q56 0 82.5 35.5t26.5 96.5v364q0 61 -26.5 96.5t-82.5 35.5q-55 0 -81 -35.5t-26 -96.5z" />
    <glyph glyph-name="uni043F" unicode="&#x43f;" horiz-adv-x="391" 
d="M304 658h-218v-658h-46v700h311v-700h-47v658z" />
    <glyph glyph-name="uni0440" unicode="&#x440;" horiz-adv-x="364" 
d="M40 700h145q150 0 150 -170v-76q0 -166 -162 -166h-87v-288h-46v700zM86 330h87q61 0 88.5 28.5t27.5 92.5v82q0 125 -104 125h-99v-328z" />
    <glyph glyph-name="uni0441" unicode="&#x441;" horiz-adv-x="374" 
d="M188 706q77 0 114 -48.5t37 -128.5v-58h-44v61q0 60 -25.5 96t-80.5 36t-80.5 -36t-25.5 -96v-364q0 -131 106 -131t106 131v83h44v-80q0 -80 -37 -128.5t-114 -48.5t-114 48.5t-37 128.5v358q0 80 37 128.5t114 48.5z" />
    <glyph glyph-name="uni0442" unicode="&#x442;" horiz-adv-x="388" 
d="M217 0h-46v658h-143v42h332v-42h-143v-658z" />
    <glyph glyph-name="uni0443" unicode="&#x443;" horiz-adv-x="426" 
d="M398 700l-181 -570q-19 -70 -51 -101.5t-103 -28.5v41q46 -1 68 18.5t36 63.5l29 85l-168 492h47l82 -247l61 -187l56 188l76 246h48z" />
    <glyph glyph-name="uni0444" unicode="&#x444;" horiz-adv-x="556" 
d="M300 619h57q161 0 161 -176v-191q0 -176 -161 -176h-57v-76h-45v76h-57q-161 0 -161 176v191q0 176 161 176h57v81h45v-81zM255 578h-57q-116 0 -116 -132v-197q0 -132 116 -132h57v461zM300 117h57q116 0 116 132v197q0 132 -116 132h-57v-461z" />
    <glyph glyph-name="uni0445" unicode="&#x445;" horiz-adv-x="440" 
d="M360 0l-142 326l-142 -326h-45l158 363l-147 337h48l132 -301l133 301h44l-147 -337l157 -363h-49z" />
    <glyph glyph-name="uni0446" unicode="&#x446;" horiz-adv-x="455" 
d="M421 -94h-45v94h-323v700h45v-658h218v658h47v-658h58v-136z" />
    <glyph glyph-name="uni0447" unicode="&#x447;" horiz-adv-x="387" 
d="M301 0v336q-40 -69 -123 -69q-71 0 -106 47.5t-35 123.5v262h46v-259q0 -58 27.5 -95t80.5 -37q87 0 110 91v300h46v-700h-46z" />
    <glyph glyph-name="uni0448" unicode="&#x448;" horiz-adv-x="564" 
d="M40 700h46v-658h173v658h46v-658h173v658h46v-700h-484v700z" />
    <glyph glyph-name="uni0449" unicode="&#x449;" horiz-adv-x="615" 
d="M582 -94h-45v94h-497v700h46v-658h172v658h46v-658h174l-1 658h46v-658h59v-136z" />
    <glyph glyph-name="uni044A" unicode="&#x44a;" horiz-adv-x="435" 
d="M151 412h87q162 0 162 -166v-76q0 -170 -150 -170h-145v658h-95v42h141v-288zM151 42h99q104 0 104 125v82q0 63 -28 92t-88 29h-87v-328z" />
    <glyph glyph-name="uni044B" unicode="&#x44b;" horiz-adv-x="487" 
d="M86 412h86q83 0 123 -41t40 -125v-76q0 -170 -151 -170h-144v700h46v-288zM401 700h46v-700h-46v700zM86 42h98q105 0 105 125v82q0 64 -28 92.5t-89 28.5h-86v-328z" />
    <glyph glyph-name="uni044C" unicode="&#x44c;" horiz-adv-x="370" 
d="M86 412h86q83 0 123 -41t40 -125v-76q0 -170 -151 -170h-144v700h46v-288zM86 42h98q105 0 105 125v82q0 64 -28 92.5t-89 28.5h-86v-328z" />
    <glyph glyph-name="uni044D" unicode="&#x44d;" horiz-adv-x="374" 
d="M186 706q76 0 113.5 -48.5t37.5 -128.5v-358q0 -80 -37.5 -128.5t-113.5 -48.5q-77 0 -114 48.5t-37 128.5v68h44v-71q0 -131 105 -131q107 0 107 131v173h-143v42h143v149q0 132 -107 132q-54 0 -79.5 -36t-25.5 -96v-47h-43v44q0 81 36.5 129t113.5 48z" />
    <glyph glyph-name="uni044E" unicode="&#x44e;" horiz-adv-x="552" 
d="M361 706q77 0 115.5 -48t38.5 -129v-358q0 -81 -38.5 -129t-115.5 -48q-78 0 -116 48t-38 129v158h-121v-329h-46v700h46v-329h121v158q0 81 38 129t116 48zM361 664q-108 0 -108 -132v-364q0 -132 108 -132q55 0 81.5 35.5t26.5 96.5v364q0 61 -26.5 96.5t-81.5 35.5z
" />
    <glyph glyph-name="uni044F" unicode="&#x44f;" horiz-adv-x="386" 
d="M300 313h-73q-65 0 -98 -26.5t-33 -92.5v-110q0 -58 -15 -84h-48q17 26 17 84v109q0 121 101 143q-101 23 -101 145v61q0 158 150 158h146v-700h-46v313zM300 658h-99q-105 0 -105 -120v-66q0 -67 32 -92t98 -25h74v303z" />
    <glyph glyph-name="uni0451" unicode="&#x451;" horiz-adv-x="351" 
d="M109 830h41v-85h-41v85zM206 830h41v-85h-41v85zM86 376h191v-42h-191v-292h230v-42h-276v700h276v-42h-230v-282z" />
    <glyph glyph-name="uni1E02" unicode="&#x1e02;" horiz-adv-x="378" 
d="M150 827h40v-85h-40v85zM40 700h147q77 0 110 -37t33 -112v-40q0 -60 -20.5 -93.5t-71.5 -44.5q105 -21 105 -150v-61q0 -162 -153 -162h-150v700zM86 391h78q64 0 92 23.5t28 87.5v45q0 57 -22 84t-76 27h-100v-267zM86 42h104q107 0 107 121v63q0 67 -30 95t-94 28h-87
v-307z" />
    <glyph glyph-name="uni1E03" unicode="&#x1e03;" horiz-adv-x="378" 
d="M150 827h40v-85h-40v85zM40 700h147q77 0 110 -37t33 -112v-40q0 -60 -20.5 -93.5t-71.5 -44.5q105 -21 105 -150v-61q0 -162 -153 -162h-150v700zM86 391h78q64 0 92 23.5t28 87.5v45q0 57 -22 84t-76 27h-100v-267zM86 42h104q107 0 107 121v63q0 67 -30 95t-94 28h-87
v-307z" />
    <glyph glyph-name="uni1E0A" unicode="&#x1e0a;" horiz-adv-x="385" 
d="M156 827h41v-85h-41v85zM40 700h154q78 0 116.5 -46.5t38.5 -127.5v-352q0 -81 -38.5 -127.5t-116.5 -46.5h-154v700zM86 42h107q110 0 110 130v356q0 60 -27 95t-83 35h-107v-616z" />
    <glyph glyph-name="uni1E0B" unicode="&#x1e0b;" horiz-adv-x="385" 
d="M156 827h41v-85h-41v85zM40 700h154q78 0 116.5 -46.5t38.5 -127.5v-352q0 -81 -38.5 -127.5t-116.5 -46.5h-154v700zM86 42h107q110 0 110 130v356q0 60 -27 95t-83 35h-107v-616z" />
    <glyph glyph-name="uni1E1E" unicode="&#x1e1e;" horiz-adv-x="336" 
d="M151 826h41v-85h-41v85zM86 359h181v-42h-181v-317h-46v700h266v-42h-220v-299z" />
    <glyph glyph-name="uni1E1F" unicode="&#x1e1f;" horiz-adv-x="336" 
d="M158 827h41v-85h-41v85zM86 359h181v-42h-181v-317h-46v700h266v-42h-220v-299z" />
    <glyph glyph-name="uni1E40" unicode="&#x1e40;" horiz-adv-x="505" 
d="M232 831h41v-86h-41v86zM421 622l-146 -621h-46l-148 619v-620h-41v700h66l147 -619l146 619h66v-700h-44v622z" />
    <glyph glyph-name="uni1E41" unicode="&#x1e41;" horiz-adv-x="505" 
d="M232 832h41v-85h-41v85zM421 622l-146 -621h-46l-148 619v-620h-41v700h66l147 -619l146 619h66v-700h-44v622z" />
    <glyph glyph-name="uni1E56" unicode="&#x1e56;" horiz-adv-x="364" 
d="M150 827h41v-85h-41v85zM40 700h145q150 0 150 -170v-76q0 -166 -162 -166h-87v-288h-46v700zM86 330h87q61 0 88.5 28.5t27.5 92.5v82q0 125 -104 125h-99v-328z" />
    <glyph glyph-name="uni1E57" unicode="&#x1e57;" horiz-adv-x="364" 
d="M155 827h41v-85h-41v85zM40 700h145q150 0 150 -170v-76q0 -166 -162 -166h-87v-288h-46v700zM86 330h87q61 0 88.5 28.5t27.5 92.5v82q0 125 -104 125h-99v-328z" />
    <glyph glyph-name="uni1E60" unicode="&#x1e60;" horiz-adv-x="370" 
d="M165 827h41v-84h-41v84zM186 706q76 0 112.5 -47.5t36.5 -127.5v-15h-44v18q0 130 -104 130t-104 -129q0 -34 14 -63t36.5 -50.5t49 -41l53.5 -40t49.5 -43.5t36.5 -56t14 -72q0 -80 -37 -127.5t-114 -47.5t-114 47.5t-37 127.5v36h44v-39q0 -129 106 -129t106 129
q0 34 -14 62.5t-36.5 49.5t-49 41l-53.5 40.5t-49.5 43.5t-36.5 56t-14 73q0 81 37 127t112 47z" />
    <glyph glyph-name="uni1E61" unicode="&#x1e61;" horiz-adv-x="370" 
d="M170 833h41v-84h-41v84zM186 706q76 0 112.5 -47.5t36.5 -127.5v-15h-44v18q0 130 -104 130t-104 -129q0 -34 14 -63t36.5 -50.5t49 -41l53.5 -40t49.5 -43.5t36.5 -56t14 -72q0 -80 -37 -127.5t-114 -47.5t-114 47.5t-37 127.5v36h44v-39q0 -129 106 -129t106 129
q0 34 -14 62.5t-36.5 49.5t-49 41l-53.5 40.5t-49.5 43.5t-36.5 56t-14 73q0 81 37 127t112 47z" />
    <glyph glyph-name="uni1E6A" unicode="&#x1e6a;" horiz-adv-x="388" 
d="M174 828h40v-85h-40v85zM217 0h-46v658h-143v42h332v-42h-143v-658z" />
    <glyph glyph-name="uni1E6B" unicode="&#x1e6b;" horiz-adv-x="388" 
d="M171 827h41v-85h-41v85zM214 0h-46v658h-142v42h331v-42h-143v-658z" />
    <glyph glyph-name="Wgrave" unicode="&#x1e80;" horiz-adv-x="603" 
d="M229 842h50l71 -95h-36zM306 573l-98 -573h-64l-113 700h45l105 -638l102 635h49l98 -633l101 636h41l-112 -700h-60z" />
    <glyph glyph-name="wgrave" unicode="&#x1e81;" horiz-adv-x="603" 
d="M229 842h50l71 -95h-36zM306 573l-98 -573h-64l-113 700h45l105 -638l102 635h49l98 -633l101 636h41l-112 -700h-60z" />
    <glyph glyph-name="Wacute" unicode="&#x1e82;" horiz-adv-x="603" 
d="M335 836h47l-84 -95h-35zM306 573l-98 -573h-64l-113 700h45l105 -638l102 635h49l98 -633l101 636h41l-112 -700h-60z" />
    <glyph glyph-name="wacute" unicode="&#x1e83;" horiz-adv-x="603" 
d="M335 836h47l-84 -95h-35zM306 573l-98 -573h-64l-113 700h45l105 -638l102 635h49l98 -633l101 636h41l-112 -700h-60z" />
    <glyph glyph-name="Wdieresis" unicode="&#x1e84;" horiz-adv-x="603" 
d="M236 830h41v-85h-41v85zM333 830h41v-85h-41v85zM306 573l-98 -573h-64l-113 700h45l105 -638l102 635h49l98 -633l101 636h41l-112 -700h-60z" />
    <glyph glyph-name="wdieresis" unicode="&#x1e85;" horiz-adv-x="603" 
d="M236 830h41v-85h-41v85zM333 830h41v-85h-41v85zM306 573l-98 -573h-64l-113 700h45l105 -638l102 635h49l98 -633l101 636h41l-112 -700h-60z" />
    <glyph glyph-name="Ygrave" unicode="&#x1ef2;" horiz-adv-x="415" 
d="M127 842h49l72 -95h-37zM184 0v269l-157 431h48l134 -368l134 368h45l-158 -431v-269h-46z" />
    <glyph glyph-name="ygrave" unicode="&#x1ef3;" horiz-adv-x="415" 
d="M127 842h49l72 -95h-37zM184 0v269l-157 431h48l134 -368l134 368h45l-158 -431v-269h-46z" />
    <glyph glyph-name="figuredash" unicode="&#x2012;" horiz-adv-x="453" 
d="M26 331v38h401v-38h-401z" />
    <glyph glyph-name="endash" unicode="&#x2013;" horiz-adv-x="417" 
d="M26 331v38h366v-38h-366z" />
    <glyph glyph-name="emdash" unicode="&#x2014;" horiz-adv-x="670" 
d="M26 331v38h619v-38h-619z" />
    <glyph glyph-name="quoteleft" unicode="&#x2018;" horiz-adv-x="134" 
d="M40 620l29 80h20l-20 -76h16v-88h-45v84z" />
    <glyph glyph-name="quoteright" unicode="&#x2019;" horiz-adv-x="134" 
d="M94 616l-29 -80h-20l20 76h-15v88h44v-84z" />
    <glyph glyph-name="quotesinglbase" unicode="&#x201a;" horiz-adv-x="134" 
d="M94 4l-29 -80h-20l20 76h-15v88h44v-84z" />
    <glyph glyph-name="quotedblleft" unicode="&#x201c;" horiz-adv-x="212" 
d="M40 620l29 80h20l-20 -76h16v-88h-45v84zM118 620l29 80h21l-21 -76h16v-88h-45v84z" />
    <glyph glyph-name="quotedblright" unicode="&#x201d;" horiz-adv-x="212" 
d="M90 616l-29 -80h-21l21 76h-16v88h45v-84zM168 616l-29 -80h-20l20 76h-16v88h45v-84z" />
    <glyph glyph-name="quotedblbase" unicode="&#x201e;" horiz-adv-x="217" 
d="M94 4l-29 -80h-20l20 76h-15v88h44v-84zM177 4l-28 -80h-21l21 76h-16v88h44v-84z" />
    <glyph glyph-name="dagger" unicode="&#x2020;" horiz-adv-x="393" 
d="M216 700v-199h142v-37h-142v-529h-39v529h-142v37h142v199h39z" />
    <glyph glyph-name="daggerdbl" unicode="&#x2021;" horiz-adv-x="393" 
d="M216 700v-199h142v-37h-142v-291h142v-38h-142v-200h-39v200h-142v38h142v291h-142v37h142v199h39z" />
    <glyph glyph-name="bullet" unicode="&#x2022;" horiz-adv-x="263" 
d="M131 422q30 0 51 -21t21 -51t-21 -51t-51 -21q-29 0 -50 21t-21 51t21 51t50 21z" />
    <glyph glyph-name="ellipsis" unicode="&#x2026;" horiz-adv-x="283" 
d="M40 88h45v-88h-45v88zM119 88h44v-88h-44v88zM199 88h44v-88h-44v88z" />
    <glyph glyph-name="perthousand" unicode="&#x2030;" horiz-adv-x="852" 
d="M132 702q48 0 71.5 -31t23.5 -82v-213q0 -51 -23.5 -82t-71.5 -31t-71 31t-23 82v213q0 51 23 82t71 31zM424 701h30l-276 -701h-30zM132 673q-63 0 -63 -83v-216q0 -82 63 -82t63 82v216q0 83 -63 83zM473 436q48 0 71 -31.5t23 -82.5v-210q0 -51 -23 -82.5t-71 -31.5
t-71.5 31.5t-23.5 82.5v210q0 51 23.5 82.5t71.5 31.5zM720 436q48 0 71 -31.5t23 -82.5v-210q0 -51 -23 -82.5t-71 -31.5t-71.5 31.5t-23.5 82.5v210q0 51 23.5 82.5t71.5 31.5zM473 406q-63 0 -63 -82v-214q0 -83 63 -83t63 83v214q0 82 -63 82zM720 406q-63 0 -63 -82
v-214q0 -83 63 -83t63 83v214q0 82 -63 82z" />
    <glyph glyph-name="guilsinglleft" unicode="&#x2039;" horiz-adv-x="171" 
d="M96 97l-65 253l65 248h44l-64 -248l64 -253h-44z" />
    <glyph glyph-name="guilsinglright" unicode="&#x203a;" horiz-adv-x="171" 
d="M31 98l64 253l-64 248h44l65 -248l-65 -253h-44z" />
    <glyph glyph-name="fraction" unicode="&#x2044;" horiz-adv-x="258" 
d="M252 700h30l-276 -700h-30z" />
    <glyph glyph-name="zerosuperior" unicode="&#x2070;" horiz-adv-x="274" 
d="M38 459v228q0 51 24.5 82t74.5 31t74.5 -31t24.5 -82v-228q0 -51 -24.5 -82t-74.5 -31t-74.5 31t-24.5 82zM69 689v-232q0 -82 68 -82q67 0 67 82v232q0 82 -67 82q-68 0 -68 -82z" />
    <glyph glyph-name="foursuperior" unicode="&#x2074;" horiz-adv-x="286" 
d="M254 447h-37v-96h-31v96h-152v29l148 319h35v-319h37v-29zM186 735l-122 -259h122v259z" />
    <glyph glyph-name="fivesuperior" unicode="&#x2075;" horiz-adv-x="271" 
d="M69 481v-25q0 -82 66 -82t66 82v75q0 82 -66 82q-22 0 -39.5 -13t-21.5 -36v-8h-31l12 239h167v-30h-139l-7 -160q23 38 70 38q44 0 65.5 -30t21.5 -80v-76q0 -51 -24 -82t-73 -31t-73 31t-24 82v24h30z" />
    <glyph glyph-name="sixsuperior" unicode="&#x2076;" horiz-adv-x="274" 
d="M138 800q50 0 73.5 -30t23.5 -82v-5h-30v7q0 81 -66 81q-69 0 -69 -86v-112q21 50 78 50q44 0 66 -30t22 -80v-54q0 -52 -24 -82.5t-74 -30.5t-74.5 31t-24.5 82v227q0 114 99 114zM138 594q-68 0 -68 -83v-54q0 -82 68 -82q67 0 67 82v54q0 83 -67 83z" />
    <glyph glyph-name="sevensuperior" unicode="&#x2077;" horiz-adv-x="270" 
d="M75 351l125 415h-162v29h194v-28l-125 -416h-32z" />
    <glyph glyph-name="eightsuperior" unicode="&#x2078;" horiz-adv-x="277" 
d="M139 800q49 0 75.5 -29.5t26.5 -79.5v-14q0 -73 -54 -94q54 -19 54 -95v-31q0 -51 -26 -81t-76 -30t-76 30t-26 81v31q0 76 54 95q-54 21 -54 94v14q0 50 26 79.5t76 29.5zM139 771q-71 0 -71 -81v-18q0 -75 71 -75q70 0 70 75v18q0 81 -70 81zM139 568q-71 0 -71 -77
v-34q0 -82 71 -82q70 0 70 82v34q0 77 -70 77z" />
    <glyph glyph-name="ninesuperior" unicode="&#x2079;" horiz-adv-x="274" 
d="M136 800q50 0 74.5 -31t24.5 -82v-227q0 -52 -24.5 -83t-74.5 -31q-49 0 -74 30.5t-25 81.5v6h31v-8q0 -81 67 -81q68 0 68 86v111q-19 -49 -77 -49q-45 0 -67 29.5t-22 79.5v55q0 51 24.5 82t74.5 31zM136 771q-67 0 -67 -82v-55q0 -82 67 -82t67 82v55q0 82 -67 82z
" />
    <glyph glyph-name="zeroinferior" unicode="&#x2080;" horiz-adv-x="274" 
d="M38 43v228q0 51 24.5 82t74.5 31t74.5 -31t24.5 -82v-228q0 -51 -24.5 -82t-74.5 -31t-74.5 31t-24.5 82zM69 273v-232q0 -82 68 -82q67 0 67 82v232q0 82 -67 82q-68 0 -68 -82z" />
    <glyph glyph-name="oneinferior" unicode="&#x2081;" horiz-adv-x="178" 
d="M102 -65v393q-26 -30 -67 -34v25q53 3 74 60h25v-444h-32z" />
    <glyph glyph-name="twoinferior" unicode="&#x2082;" horiz-adv-x="271" 
d="M138 384q50 0 73.5 -31t23.5 -83q0 -35 -16.5 -67.5t-40.5 -58l-48 -50.5t-41 -57.5t-17 -68.5v-4h158v-29h-189v23q0 43 16.5 79.5t40.5 63l48 50.5t40.5 54.5t16.5 63.5q0 86 -66 86t-66 -85v-30h-30v29q0 52 23.5 83.5t73.5 31.5z" />
    <glyph glyph-name="threeinferior" unicode="&#x2083;" horiz-adv-x="271" 
d="M136 384q49 0 72.5 -30.5t23.5 -82.5v-11q0 -72 -56 -93q56 -18 56 -89v-35q0 -52 -23.5 -82.5t-72.5 -30.5t-73 30.5t-24 82.5v25h30v-27q0 -82 66 -82t66 85v34q0 34 -17 53.5t-48 19.5h-30v29h31q29 0 47 21.5t17 52.5v16q0 85 -66 85t-66 -82v-18h-30v16
q0 52 24 82.5t73 30.5z" />
    <glyph glyph-name="fourinferior" unicode="&#x2084;" horiz-adv-x="286" 
d="M254 28h-37v-96h-31v96h-152v29l148 319h35v-319h37v-29zM186 316l-122 -259h122v259z" />
    <glyph glyph-name="fiveinferior" unicode="&#x2085;" horiz-adv-x="271" 
d="M69 69v-26q0 -82 66 -82t66 82v75q0 83 -66 83q-22 0 -39.5 -13.5t-21.5 -36.5v-7h-31l12 238h167v-30h-139l-7 -159q23 37 70 37q44 0 65.5 -30t21.5 -80v-76q0 -51 -24 -82t-73 -31t-73 31t-24 82v25h30z" />
    <glyph glyph-name="sixinferior" unicode="&#x2086;" horiz-adv-x="274" 
d="M138 384q50 0 73.5 -30t23.5 -82v-5h-30v7q0 81 -66 81q-69 0 -69 -86v-112q21 50 78 50q44 0 66 -30t22 -80v-54q0 -52 -24 -82.5t-74 -30.5t-74.5 31t-24.5 82v227q0 114 99 114zM138 178q-68 0 -68 -83v-54q0 -82 68 -82q67 0 67 82v54q0 83 -67 83z" />
    <glyph glyph-name="seveninferior" unicode="&#x2087;" horiz-adv-x="270" 
d="M75 -62l125 415h-162v29h194v-28l-125 -416h-32z" />
    <glyph glyph-name="eightinferior" unicode="&#x2088;" horiz-adv-x="277" 
d="M139 384q49 0 75.5 -29.5t26.5 -79.5v-14q0 -73 -54 -94q54 -19 54 -95v-31q0 -51 -26 -81t-76 -30t-76 30t-26 81v31q0 76 54 95q-54 21 -54 94v14q0 50 26 79.5t76 29.5zM139 355q-71 0 -71 -81v-18q0 -75 71 -75q70 0 70 75v18q0 81 -70 81zM139 152q-71 0 -71 -77
v-34q0 -82 71 -82q70 0 70 82v34q0 77 -70 77z" />
    <glyph glyph-name="nineinferior" unicode="&#x2089;" horiz-adv-x="274" 
d="M136 384q50 0 74.5 -31t24.5 -82v-227q0 -52 -24.5 -83t-74.5 -31q-49 0 -74 30.5t-25 81.5v6h31v-8q0 -81 67 -81q68 0 68 86v111q-19 -49 -77 -49q-45 0 -67 29.5t-22 79.5v55q0 51 24.5 82t74.5 31zM136 355q-67 0 -67 -82v-55q0 -82 67 -82t67 82v55q0 82 -67 82z
" />
    <glyph glyph-name="Euro" unicode="&#x20ac;" horiz-adv-x="397" 
d="M66 420v109q0 80 36 128.5t112 48.5t112 -48.5t36 -128.5v-38h-44v41q0 132 -103 132q-53 0 -78 -36t-25 -96v-112h193v-27h-193v-82h193v-26h-193v-117q0 -131 103 -131t103 131v46h44v-43q0 -80 -36 -128.5t-112 -48.5t-112 48.5t-36 128.5v114h-40v26h40v82h-40v27h40
z" />
    <glyph glyph-name="uni20B9" unicode="&#x20b9;" horiz-adv-x="380" 
d="M345 663h-140q75 -33 77 -138h63v-37h-63q-4 -71 -46.5 -113.5t-120.5 -42.5h-29l250 -332h-50l-251 333v36h70q66 0 98 31.5t34 87.5h-199v37h199q0 63 -34 100.5t-98 37.5h-67v37h307v-37z" />
    <glyph glyph-name="uni2117" unicode="&#x2117;" horiz-adv-x="748" 
d="M374 701q148 0 244.5 -100t96.5 -250q0 -151 -96.5 -251t-244.5 -100t-244.5 100t-96.5 251q0 150 96.5 250t244.5 100zM374 669q-134 0 -221.5 -91t-87.5 -227q0 -137 87.5 -228.5t221.5 -91.5t221 91.5t87 228.5t-87 227.5t-221 90.5zM292 556h103q104 0 104 -116v-35
q0 -58 -27 -85.5t-85 -27.5h-61v-164h-34v428zM326 323h59q42 0 61 20t19 65v29q0 87 -72 87h-67v-201z" />
    <glyph glyph-name="trademark" unicode="&#x2122;" horiz-adv-x="580" 
d="M136 344h-32v327h-90v29h211v-29h-89v-327zM515 651l-91 -303h-31l-92 303v-307h-29v356h44l93 -304l92 304h44v-356h-30v307z" />
    <glyph glyph-name="uni2153" unicode="&#x2153;" horiz-adv-x="566" 
d="M116 256v393q-26 -30 -66 -34l-1 25q55 3 74 60h25v-444h-32zM378 700h30l-276 -700h-30zM431 449q49 0 73 -31t24 -82v-11q0 -71 -56 -92q56 -21 56 -90v-35q0 -51 -24 -82t-73 -31t-73 30.5t-24 82.5v25h30v-27q0 -82 66 -82t66 85v34q0 34 -17 53.5t-48 19.5h-30v29
h31q29 0 47 21.5t17 52.5v16q0 85 -66 85t-66 -82v-18h-30v16q0 52 24 82.5t73 30.5z" />
    <glyph glyph-name="uni2154" unicode="&#x2154;" horiz-adv-x="610" 
d="M138 705q50 0 73.5 -31t23.5 -83q0 -35 -16.5 -67.5t-40.5 -58l-47.5 -51t-40.5 -58t-18 -67.5v-4h158v-29h-189v22q0 43 16.5 80t40.5 63l48 50.5t40.5 55t16.5 63.5q0 86 -66 86t-66 -85v-30h-30v29q0 52 23.5 83.5t73.5 31.5zM459 700l-276 -700h-29l276 700h29z
M474 449q49 0 73 -30.5t24 -82.5v-11q0 -71 -56 -92q56 -20 56 -90v-35q0 -52 -24 -82.5t-73 -30.5t-73 30.5t-24 82.5v25h30v-27q0 -82 66 -82q67 0 67 85v34q0 34 -17 53.5t-48 19.5h-30v29h31q28 0 46 21.5t18 52.5v16q0 85 -67 85q-66 0 -66 -82v-18h-30v16
q0 52 24 82.5t73 30.5z" />
    <glyph glyph-name="oneeighth" unicode="&#x215b;" horiz-adv-x="576" 
d="M116 256v393q-26 -30 -66 -34l-1 25q55 3 74 60h25v-444h-32zM132 0h-30l276 700h30zM437 449q50 0 76 -29.5t26 -79.5v-14q0 -73 -54 -94q54 -19 54 -95v-31q0 -51 -26 -81t-76 -30t-76 30t-26 81v31q0 76 54 95q-54 21 -54 94v14q0 50 26.5 79.5t75.5 29.5zM437 420
q-70 0 -70 -81v-18q0 -75 70 -75t70 75v18q0 81 -70 81zM437 217q-70 0 -70 -77v-34q0 -82 70 -82t70 82v34q0 77 -70 77z" />
    <glyph glyph-name="threeeighths" unicode="&#x215c;" horiz-adv-x="626" 
d="M136 705q49 0 72.5 -30.5t23.5 -82.5v-11q0 -71 -56 -92q56 -20 56 -90v-35q0 -52 -23.5 -82.5t-72.5 -30.5t-73 30.5t-24 82.5v25h30v-27q0 -82 66 -82t66 85v34q0 34 -17 53.5t-48 19.5h-30v29h31q29 0 47 21.5t17 52.5v16q0 85 -66 85t-66 -82v-18h-30v16
q0 52 24 82.5t73 30.5zM432 700h30l-276 -700h-30zM487 449q49 0 75.5 -29.5t26.5 -79.5v-14q0 -73 -54 -94q54 -19 54 -95v-31q0 -51 -26 -81t-76 -30t-76 30t-26 81v31q0 76 54 95q-54 21 -54 94v14q0 50 26.5 79.5t75.5 29.5zM487 420q-70 0 -70 -81v-18q0 -75 70 -75
t70 75v18q0 81 -70 81zM487 217q-70 0 -70 -77v-34q0 -82 70 -82t70 82v34q0 77 -70 77z" />
    <glyph glyph-name="fiveeighths" unicode="&#x215d;" horiz-adv-x="624" 
d="M83 670l-7 -160q23 38 70 38q44 0 65.5 -30t21.5 -80v-76q0 -51 -24 -82t-73 -31t-73 31t-24 82v24h30v-25q0 -82 66 -82t66 82v75q0 82 -66 82q-22 0 -39.5 -13t-21.5 -36v-8h-31l12 239h167v-30h-139zM155 0l276 700h30l-276 -700h-30zM486 449q49 0 75.5 -29.5
t26.5 -79.5v-14q0 -73 -54 -94q54 -19 54 -95v-31q0 -51 -26 -81t-76 -30t-76 30t-26 81v31q0 76 54 95q-54 21 -54 94v14q0 50 26 79.5t76 29.5zM486 420q-71 0 -71 -81v-18q0 -75 71 -75q70 0 70 75v18q0 81 -70 81zM486 217q-71 0 -71 -77v-34q0 -82 71 -82q70 0 70 82
v34q0 77 -70 77z" />
    <glyph glyph-name="seveneighths" unicode="&#x215e;" horiz-adv-x="561" 
d="M75 256l125 415h-162v29h194v-28l-125 -416h-32zM387 700l-276 -700h-30l276 700h30zM422 449q50 0 76 -29.5t26 -79.5v-14q0 -73 -54 -94q54 -19 54 -95v-31q0 -51 -26 -81t-76 -30t-76 30t-26 81v31q0 76 54 95q-54 21 -54 94v14q0 50 26.5 79.5t75.5 29.5zM422 420
q-70 0 -70 -81v-18q0 -75 70 -75q71 0 71 75v18q0 81 -71 81zM422 217q-70 0 -70 -77v-34q0 -82 70 -82q71 0 71 82v34q0 77 -71 77z" />
    <glyph glyph-name="minus" unicode="&#x2212;" horiz-adv-x="388" 
d="M35 367h319v-34h-319v34z" />
    <glyph glyph-name="infinity" unicode="&#x221e;" horiz-adv-x="566" 
d="M392 481h14q58 0 91 -29.5t33 -85.5t-33 -85.5t-91 -29.5h-14q-86 0 -106 60q-23 -60 -109 -60h-13q-58 0 -91.5 29.5t-33.5 85.5t33.5 85.5t91.5 29.5h13q86 0 109 -60q20 60 106 60zM181 448h-17q-91 0 -91 -82q0 -80 91 -82h17q88 0 88 82t-88 82zM404 448h-17
q-87 0 -87 -82q0 -81 87 -82h17q43 0 67.5 21t24.5 61t-24.5 61t-67.5 21z" />
    <glyph glyph-name="approxequal" unicode="&#x2248;" horiz-adv-x="397" 
d="M124 479q31 1 82 -31t75 -31q31 1 63 54l24 -22q-39 -67 -87 -68q-29 -1 -80 30.5t-77 30.5q-36 0 -71 -53l-25 21q45 68 96 69zM124 318q31 1 82 -31t75 -31q31 1 63 54l24 -22q-40 -67 -87 -68q-29 -1 -80 30.5t-77 31.5q-37 -1 -71 -54l-25 21q45 68 96 69z" />
    <glyph glyph-name="uni25FC" unicode="&#x25fc;" horiz-adv-x="700" 
d="M0 700h700v-700h-700v700z" />
    <glyph glyph-name="commaaccentcomb" unicode="&#xf6c3;" horiz-adv-x="0" 
d="M103 -113l-27 -63h-18l19 59h-13v83h39v-79z" />
    <glyph glyph-name="NULL" horiz-adv-x="0" 
 />
    <glyph glyph-name="CR" horiz-adv-x="155" 
 />
    <glyph glyph-name="zero.alt" horiz-adv-x="381" 
d="M37 171v358q0 81 38.5 129t115.5 48t115.5 -48t38.5 -129v-358q0 -81 -38.5 -129t-115.5 -48t-115.5 48t-38.5 129zM83 532v-363q0 -61 26.5 -97t81.5 -36t81.5 36t26.5 97v363q0 61 -26.5 96.5t-81.5 35.5t-81.5 -35.5t-26.5 -96.5z" />
    <glyph glyph-name="one.alt" horiz-adv-x="281" 
d="M137 0v622q-40 -53 -109 -59v40q87 6 119 98h36v-701h-46z" />
    <glyph glyph-name="two.alt" horiz-adv-x="368" 
d="M186 706q78 0 114.5 -48t36.5 -130q0 -56 -26 -106.5t-63.5 -91l-75 -80.5t-64 -92.5t-27.5 -109.5v-6h250v-42h-296v34q0 68 26.5 126.5t64 99.5l75 80t64 86t26.5 100q0 138 -107 138q-55 0 -80 -37t-25 -98v-48h-44v45q0 81 37 130.5t114 49.5z" />
    <glyph glyph-name="three.alt" horiz-adv-x="373" 
d="M187 706q77 0 114 -48t37 -129v-17q0 -52 -24.5 -90.5t-69.5 -54.5q46 -14 70 -51.5t24 -90.5v-54q0 -81 -37 -129t-114 -48t-114.5 48t-37.5 129v40h44v-42q0 -133 106 -133q107 0 107 136v54q0 113 -104 118h-48v42h50q47 3 74.5 35t27.5 82v25q0 136 -107 136
q-106 0 -106 -132v-28h-44v25q0 81 37.5 129t114.5 48z" />
    <glyph glyph-name="four.alt" horiz-adv-x="403" 
d="M374 155h-59v-155h-46v155h-238v43l232 503h52v-504h59v-42zM269 614l-196 -417h196v417z" />
    <glyph glyph-name="five.alt" horiz-adv-x="373" 
d="M102 658l-13 -251q36 55 113 55q69 0 102.5 -46.5t33.5 -124.5v-120q0 -80 -37 -128.5t-114 -48.5t-114 48.5t-37 128.5v38h44v-40q0 -60 25.5 -96t80.5 -36q54 0 80 36t26 96v118q0 60 -26 96t-80 36q-80 0 -100 -80v-12h-44l19 374h262v-43h-221z" />
    <glyph glyph-name="six.alt" horiz-adv-x="382" 
d="M192 706q77 0 114 -46.5t37 -127.5v-8h-44v11q0 129 -106 129q-110 0 -110 -138v-162q38 64 125 64q70 0 104 -46.5t34 -124.5v-86q0 -81 -38.5 -129t-115.5 -48q-78 0 -116.5 48t-38.5 129v356q0 83 38 131t117 48zM192 385q-56 0 -82.5 -35.5t-26.5 -95.5v-85
q0 -132 109 -132q55 0 81.5 35.5t26.5 96.5v85q0 60 -26.5 95.5t-81.5 35.5z" />
    <glyph glyph-name="seven.alt" horiz-adv-x="358" 
d="M89 0l193 658h-253v43h300v-42l-193 -659h-47z" />
    <glyph glyph-name="eight.alt" horiz-adv-x="388" 
d="M194 706q78 0 118.5 -45t40.5 -125v-22q0 -122 -92 -147q92 -27 92 -150v-50q0 -80 -40 -126.5t-119 -46.5q-78 0 -118.5 46.5t-40.5 126.5v50q0 121 94 150q-94 27 -94 147v22q0 80 41 125t118 45zM194 664q-55 0 -84 -33.5t-29 -95.5v-29q0 -120 113 -120t113 120v29
q0 62 -28.5 95.5t-84.5 33.5zM194 344q-113 0 -113 -123v-53q0 -62 28.5 -97t84.5 -35t84.5 35t28.5 97v53q0 123 -113 123z" />
    <glyph glyph-name="nine.alt" horiz-adv-x="382" 
d="M190 707q78 0 116 -48.5t38 -129.5v-356q0 -82 -38 -130.5t-116 -48.5q-77 0 -115 47.5t-38 127.5v9h44v-11q0 -60 26.5 -95.5t81.5 -35.5q109 0 109 139v172q-31 -74 -124 -74q-70 0 -104 46t-34 125v85q0 81 38.5 129.5t115.5 48.5zM190 664q-55 0 -81.5 -35.5
t-26.5 -96.5v-85q0 -61 26.5 -96.5t81.5 -35.5t81.5 35.5t26.5 96.5v85q0 61 -26.5 96.5t-81.5 35.5z" />
    <glyph glyph-name="Edotaaccent" horiz-adv-x="216" 
 />
    <glyph glyph-name="edotaaccent" horiz-adv-x="216" 
 />
    <glyph glyph-name="lcute" horiz-adv-x="216" 
 />
    </font>
</defs>
</svg>
